  0
SECTION
  2
HEADER
  9
$ACADVER
  1
AC1015
  9
$ACADMAINTVER
 70
     6
  9
$DWGCODEPAGE
  3
ANSI_1252
  9
$INSBASE
 10
0.0
 20
0.0
 30
0.0
  9
$EXTMIN
 10
-210.0000000000001
 20
0.0
 30
0.0
  9
$EXTMAX
 10
0.0
 20
297.0000000000001
 30
0.0
  9
$LIMMIN
 10
0.0
 20
0.0
  9
$LIMMAX
 10
12.0
 20
9.0
  9
$ORTHOMODE
 70
     0
  9
$REGENMODE
 70
     1
  9
$FILLMODE
 70
     1
  9
$QTEXTMODE
 70
     0
  9
$MIRRTEXT
 70
     1
  9
$LTSCALE
 40
1.0
  9
$ATTMODE
 70
     1
  9
$TEXTSIZE
 40
0.2
  9
$TRACEWID
 40
0.05
  9
$TEXTSTYLE
  7
Standard
  9
$CLAYER
  8
0
  9
$CELTYPE
  6
ByLayer
  9
$CECOLOR
 62
   256
  9
$CELTSCALE
 40
1.0
  9
$DISPSILH
 70
     0
  9
$DIMSCALE
 40
1.0
  9
$DIMASZ
 40
0.18
  9
$DIMEXO
 40
0.0625
  9
$DIMDLI
 40
0.38
  9
$DIMRND
 40
0.0
  9
$DIMDLE
 40
0.0
  9
$DIMEXE
 40
0.18
  9
$DIMTP
 40
0.0
  9
$DIMTM
 40
0.0
  9
$DIMTXT
 40
0.18
  9
$DIMCEN
 40
0.09
  9
$DIMTSZ
 40
0.0
  9
$DIMTOL
 70
     0
  9
$DIMLIM
 70
     0
  9
$DIMTIH
 70
     1
  9
$DIMTOH
 70
     1
  9
$DIMSE1
 70
     0
  9
$DIMSE2
 70
     0
  9
$DIMTAD
 70
     0
  9
$DIMZIN
 70
     0
  9
$DIMBLK
  1

  9
$DIMASO
 70
     1
  9
$DIMSHO
 70
     1
  9
$DIMPOST
  1

  9
$DIMAPOST
  1

  9
$DIMALT
 70
     0
  9
$DIMALTD
 70
     2
  9
$DIMALTF
 40
25.4
  9
$DIMLFAC
 40
1.0
  9
$DIMTOFL
 70
     0
  9
$DIMTVP
 40
0.0
  9
$DIMTIX
 70
     0
  9
$DIMSOXD
 70
     0
  9
$DIMSAH
 70
     0
  9
$DIMBLK1
  1

  9
$DIMBLK2
  1

  9
$DIMSTYLE
  2
Standard
  9
$DIMCLRD
 70
     0
  9
$DIMCLRE
 70
     0
  9
$DIMCLRT
 70
     0
  9
$DIMTFAC
 40
1.0
  9
$DIMGAP
 40
0.09
  9
$DIMJUST
 70
     0
  9
$DIMSD1
 70
     0
  9
$DIMSD2
 70
     0
  9
$DIMTOLJ
 70
     1
  9
$DIMTZIN
 70
     0
  9
$DIMALTZ
 70
     0
  9
$DIMALTTZ
 70
     0
  9
$DIMUPT
 70
     0
  9
$DIMDEC
 70
     4
  9
$DIMTDEC
 70
     4
  9
$DIMALTU
 70
     2
  9
$DIMALTTD
 70
     2
  9
$DIMTXSTY
  7
Standard
  9
$DIMAUNIT
 70
     0
  9
$DIMADEC
 70
     0
  9
$DIMALTRND
 40
0.0
  9
$DIMAZIN
 70
     0
  9
$DIMDSEP
 70
    46
  9
$DIMATFIT
 70
     3
  9
$DIMFRAC
 70
     0
  9
$DIMLDRBLK
  1

  9
$DIMLUNIT
 70
     2
  9
$DIMLWD
 70
    -2
  9
$DIMLWE
 70
    -2
  9
$DIMTMOVE
 70
     0
  9
$LUNITS
 70
     2
  9
$LUPREC
 70
     4
  9
$SKETCHINC
 40
0.1
  9
$FILLETRAD
 40
0.5
  9
$AUNITS
 70
     0
  9
$AUPREC
 70
     0
  9
$MENU
  1
.
  9
$ELEVATION
 40
0.0
  9
$PELEVATION
 40
0.0
  9
$THICKNESS
 40
0.0
  9
$LIMCHECK
 70
     0
  9
$CHAMFERA
 40
0.5
  9
$CHAMFERB
 40
0.5
  9
$CHAMFERC
 40
1.0
  9
$CHAMFERD
 40
0.0
  9
$SKPOLY
 70
     0
  9
$TDCREATE
 40
2456997.491214907
  9
$TDUCREATE
 40
2456997.449548241
  9
$TDUPDATE
 40
2456997.491215278
  9
$TDUUPDATE
 40
2456997.449548611
  9
$TDINDWG
 40
0.0000000116
  9
$TDUSRTIMER
 40
0.0000000116
  9
$USRTIMER
 70
     1
  9
$ANGBASE
 50
0.0
  9
$ANGDIR
 70
     0
  9
$PDMODE
 70
     0
  9
$PDSIZE
 40
0.0
  9
$PLINEWID
 40
0.0
  9
$SPLFRAME
 70
     0
  9
$SPLINETYPE
 70
     6
  9
$SPLINESEGS
 70
     8
  9
$HANDSEED
  5
3D2
  9
$SURFTAB1
 70
     6
  9
$SURFTAB2
 70
     6
  9
$SURFTYPE
 70
     6
  9
$SURFU
 70
     6
  9
$SURFV
 70
     6
  9
$UCSBASE
  2

  9
$UCSNAME
  2

  9
$UCSORG
 10
0.0
 20
0.0
 30
0.0
  9
$UCSXDIR
 10
1.0
 20
0.0
 30
0.0
  9
$UCSYDIR
 10
0.0
 20
1.0
 30
0.0
  9
$UCSORTHOREF
  2

  9
$UCSORTHOVIEW
 70
     0
  9
$UCSORGTOP
 10
0.0
 20
0.0
 30
0.0
  9
$UCSORGBOTTOM
 10
0.0
 20
0.0
 30
0.0
  9
$UCSORGLEFT
 10
0.0
 20
0.0
 30
0.0
  9
$UCSORGRIGHT
 10
0.0
 20
0.0
 30
0.0
  9
$UCSORGFRONT
 10
0.0
 20
0.0
 30
0.0
  9
$UCSORGBACK
 10
0.0
 20
0.0
 30
0.0
  9
$PUCSBASE
  2

  9
$PUCSNAME
  2

  9
$PUCSORG
 10
0.0
 20
0.0
 30
0.0
  9
$PUCSXDIR
 10
1.0
 20
0.0
 30
0.0
  9
$PUCSYDIR
 10
0.0
 20
1.0
 30
0.0
  9
$PUCSORTHOREF
  2

  9
$PUCSORTHOVIEW
 70
     0
  9
$PUCSORGTOP
 10
0.0
 20
0.0
 30
0.0
  9
$PUCSORGBOTTOM
 10
0.0
 20
0.0
 30
0.0
  9
$PUCSORGLEFT
 10
0.0
 20
0.0
 30
0.0
  9
$PUCSORGRIGHT
 10
0.0
 20
0.0
 30
0.0
  9
$PUCSORGFRONT
 10
0.0
 20
0.0
 30
0.0
  9
$PUCSORGBACK
 10
0.0
 20
0.0
 30
0.0
  9
$USERI1
 70
     0
  9
$USERI2
 70
     0
  9
$USERI3
 70
     0
  9
$USERI4
 70
     0
  9
$USERI5
 70
     0
  9
$USERR1
 40
18.1
  9
$USERR2
 40
0.0
  9
$USERR3
 40
0.0
  9
$USERR4
 40
0.0
  9
$USERR5
 40
0.0
  9
$WORLDVIEW
 70
     1
  9
$SHADEDGE
 70
     3
  9
$SHADEDIF
 70
    70
  9
$TILEMODE
 70
     1
  9
$MAXACTVP
 70
    64
  9
$PINSBASE
 10
0.0
 20
0.0
 30
0.0
  9
$PLIMCHECK
 70
     0
  9
$PEXTMIN
 10
1.00000000000000E+20
 20
1.00000000000000E+20
 30
1.00000000000000E+20
  9
$PEXTMAX
 10
-1.00000000000000E+20
 20
-1.00000000000000E+20
 30
-1.00000000000000E+20
  9
$PLIMMIN
 10
0.0
 20
0.0
  9
$PLIMMAX
 10
12.0
 20
9.0
  9
$UNITMODE
 70
     0
  9
$VISRETAIN
 70
     1
  9
$PLINEGEN
 70
     0
  9
$PSLTSCALE
 70
     1
  9
$TREEDEPTH
 70
  3020
  9
$CMLSTYLE
  2
Standard
  9
$CMLJUST
 70
     0
  9
$CMLSCALE
 40
1.0
  9
$PROXYGRAPHICS
 70
     1
  9
$MEASUREMENT
 70
     1
  9
$CELWEIGHT
370
    -1
  9
$ENDCAPS
280
     0
  9
$JOINSTYLE
280
     0
  9
$LWDISPLAY
290
     0
  9
$INSUNITS
 70
     4
  9
$HYPERLINKBASE
  1

  9
$STYLESHEET
  1

  9
$XEDIT
290
     1
  9
$CEPSNTYPE
380
     0
  9
$PSTYLEMODE
290
     1
  9
$FINGERPRINTGUID
  2
{1A2BC0F6-7ABF-4458-980E-E7E977B8A864}
  9
$VERSIONGUID
  2
{FAEB1C32-E019-11D5-929B-00C0DF256EC4}
  9
$EXTNAMES
290
     1
  9
$PSVPSCALE
 40
0.0
  9
$OLESTARTUP
290
     0
  0
ENDSEC
  0
SECTION
  2
CLASSES
  0
CLASS
  1
ACDBDICTIONARYWDFLT
  2
AcDbDictionaryWithDefault
  3
ObjectDBX Classes
 90
        0
280
     0
281
     0
  0
CLASS
  1
VISUALSTYLE
  2
AcDbVisualStyle
  3
ObjectDBX Classes
 90
     4095
280
     0
281
     0
  0
CLASS
  1
MATERIAL
  2
AcDbMaterial
  3
ObjectDBX Classes
 90
     1153
280
     0
281
     0
  0
CLASS
  1
DICTIONARYVAR
  2
AcDbDictionaryVar
  3
ObjectDBX Classes
 90
        0
280
     0
281
     0
  0
CLASS
  1
ACDBPLACEHOLDER
  2
AcDbPlaceHolder
  3
ObjectDBX Classes
 90
        0
280
     0
281
     0
  0
CLASS
  1
LAYOUT
  2
AcDbLayout
  3
ObjectDBX Classes
 90
        0
280
     0
281
     0
  0
ENDSEC
  0
SECTION
  2
TABLES
  0
TABLE
  2
VPORT
  5
8
330
0
100
AcDbSymbolTable
 70
     1
  0
VPORT
  5
29
330
8
100
AcDbSymbolTableRecord
100
AcDbViewportTableRecord
  2
*Active
 70
     0
 10
0.0
 20
0.0
 11
1.0
 21
1.0
 12
-105.0000000000001
 22
148.5000000000001
 13
0.0
 23
0.0
 14
0.5
 24
0.5
 15
0.5
 25
0.5
 16
0.0
 26
0.0
 36
1.0
 17
0.0
 27
0.0
 37
0.0
 40
326.7000000000002
 41
1.60267857142857
 42
50.0
 43
0.0
 44
0.0
 50
0.0
 51
0.0
 71
     0
 72
   100
 73
     1
 74
     3
 75
     0
 76
     0
 77
     0
 78
     0
281
     0
 65
     1
110
0.0
120
0.0
130
0.0
111
1.0
121
0.0
131
0.0
112
0.0
122
1.0
132
0.0
 79
     0
146
0.0
  0
ENDTAB
  0
TABLE
  2
LTYPE
  5
5
330
0
100
AcDbSymbolTable
 70
     8
  0
LTYPE
  5
14
330
5
100
AcDbSymbolTableRecord
100
AcDbLinetypeTableRecord
  2
ByBlock
 70
     0
  3

 72
    65
 73
     0
 40
0.0
  0
LTYPE
  5
15
330
5
100
AcDbSymbolTableRecord
100
AcDbLinetypeTableRecord
  2
ByLayer
 70
     0
  3

 72
    65
 73
     0
 40
0.0
  0
LTYPE
  5
16
330
5
100
AcDbSymbolTableRecord
100
AcDbLinetypeTableRecord
  2
Continuous
 70
     0
  3
Solid line
 72
    65
 73
     0
 40
0.0
  0
LTYPE
  5
3F
330
5
100
AcDbSymbolTableRecord
100
AcDbLinetypeTableRecord
  2
DASHED
 70
     0
  3
Dashed
 72
    65
 73
     2
 40
15.0
 49
7.0
 74
     0
 49
-8.0
 74
     0
  0
LTYPE
  5
40
330
5
100
AcDbSymbolTableRecord
100
AcDbLinetypeTableRecord
  2
DOTTED
 70
     0
  3
Dotted
 72
    65
 73
     2
 40
1.0
 49
0.0
 74
     0
 49
-1.0
 74
     0
  0
LTYPE
  5
41
330
5
100
AcDbSymbolTableRecord
100
AcDbLinetypeTableRecord
  2
DOT_CENTER
 70
     0
  3
Dot_Center
 72
    65
 73
     4
 40
14.0
 49
12.0
 74
     0
 49
-1.0
 74
     0
 49
0.0
 74
     0
 49
-1.0
 74
     0
  0
LTYPE
  5
42
330
5
100
AcDbSymbolTableRecord
100
AcDbLinetypeTableRecord
  2
LONG_DASHED
 70
     0
  3
Long_Dashed
 72
    65
 73
     2
 40
15.0
 49
10.0
 74
     0
 49
-5.0
 74
     0
  0
LTYPE
  5
43
330
5
100
AcDbSymbolTableRecord
100
AcDbLinetypeTableRecord
  2
DASH_CENTER
 70
     0
  3
Dash_Center
 72
    65
 73
     4
 40
14.0
 49
11.0
 74
     0
 49
-1.0
 74
     0
 49
1.0
 74
     0
 49
-1.0
 74
     0
  0
LTYPE
  5
44
330
5
100
AcDbSymbolTableRecord
100
AcDbLinetypeTableRecord
  2
PHANTOM
 70
     0
  3
Phantom
 72
    65
 73
     6
 40
13.0
 49
10.0
 74
     0
 49
-1.0
 74
     0
 49
0.0
 74
     0
 49
-1.0
 74
     0
 49
0.0
 74
     0
 49
-1.0
 74
     0
  0
LTYPE
  5
45
330
5
100
AcDbSymbolTableRecord
100
AcDbLinetypeTableRecord
  2
CENTER_DASH_DASH
 70
     0
  3
Center_Dash_Dash
 72
    65
 73
     6
 40
14.0
 49
9.0
 74
     0
 49
-1.0
 74
     0
 49
1.0
 74
     0
 49
-1.0
 74
     0
 49
1.0
 74
     0
 49
-1.0
 74
     0
  0
ENDTAB
  0
TABLE
  2
LAYER
  5
2
330
0
100
AcDbSymbolTable
 70
     2
  0
LAYER
  5
10
330
2
100
AcDbSymbolTableRecord
100
AcDbLayerTableRecord
  2
0
 70
     0
 62
     7
  6
Continuous
370
    -3
390
F
  0
LAYER
  5
46
330
2
100
AcDbSymbolTableRecord
100
AcDbLayerTableRecord
  2
1
 70
     0
 62
     7
  6
Continuous
370
    -3
390
F
  0
ENDTAB
  0
TABLE
  2
STYLE
  5
3
330
0
100
AcDbSymbolTable
 70
     5
  0
STYLE
  5
11
330
3
100
AcDbSymbolTableRecord
100
AcDbTextStyleTableRecord
  2
Standard
 70
     0
 40
0.0
 41
1.0
 50
0.0
 71
     0
 42
0.2
  3
txt
  4

  0
STYLE
  5
35B
330
3
100
AcDbSymbolTableRecord
100
AcDbTextStyleTableRecord
  2
CONVERTER_11
 70
     0
 40
0.0
 41
1.38
 50
0.0
 71
     0
 42
0.2
  3
ARIAL.TTF
  4

  0
STYLE
  5
35D
330
3
100
AcDbSymbolTableRecord
100
AcDbTextStyleTableRecord
  2
CONVERTER_12
 70
     0
 40
0.0
 41
1.2
 50
0.0
 71
     0
 42
0.2
  3
ARIAL.TTF
  4

  0
STYLE
  5
366
330
3
100
AcDbSymbolTableRecord
100
AcDbTextStyleTableRecord
  2
CONVERTER_13
 70
     0
 40
0.0
 41
0.855
 50
0.0
 71
     0
 42
0.2
  3
simplex.shx
  4

  0
STYLE
  5
387
330
3
100
AcDbSymbolTableRecord
100
AcDbTextStyleTableRecord
  2
CONVERTER_14
 70
     0
 40
0.0
 41
0.95
 50
0.0
 71
     0
 42
0.2
  3
simplex.shx
  4

  0
ENDTAB
  0
TABLE
  2
VIEW
  5
6
330
0
100
AcDbSymbolTable
 70
     0
  0
ENDTAB
  0
TABLE
  2
UCS
  5
7
330
0
100
AcDbSymbolTable
 70
     0
  0
ENDTAB
  0
TABLE
  2
APPID
  5
9
330
0
100
AcDbSymbolTable
 70
     1
  0
APPID
  5
12
330
9
100
AcDbSymbolTableRecord
100
AcDbRegAppTableRecord
  2
ACAD
 70
     0
  0
ENDTAB
  0
TABLE
  2
DIMSTYLE
  5
A
330
0
100
AcDbSymbolTable
 70
     4
100
AcDbDimStyleTable
  0
DIMSTYLE
105
27
330
A
100
AcDbSymbolTableRecord
100
AcDbDimStyleTableRecord
  2
Standard
 70
     0
178
     0
340
11
  0
DIMSTYLE
105
38B
102
{ACAD_REACTORS
330
38C
102
}
330
A
100
AcDbSymbolTableRecord
100
AcDbDimStyleTableRecord
  2
ME10_DIM_10
 70
     0
 41
3.0
 42
0.5
 44
1.0
 73
     0
 74
     0
 77
     1
 78
     8
140
3.0
147
2.0
172
     1
173
     1
174
     1
175
     1
176
     2
177
     2
271
     2
178
     4
271
     2
340
387
  0
DIMSTYLE
105
396
102
{ACAD_REACTORS
330
397
102
}
330
A
100
AcDbSymbolTableRecord
100
AcDbDimStyleTableRecord
  2
ME10_DIM_11
 70
     0
 41
3.0
 42
0.5
 44
1.0
 73
     0
 74
     0
 77
     1
 78
     8
140
3.0
147
2.0
172
     1
173
     1
174
     1
175
     1
176
     2
177
     2
271
     2
178
     4
271
     2
340
387
  0
DIMSTYLE
105
3A1
102
{ACAD_REACTORS
330
3A2
102
}
330
A
100
AcDbSymbolTableRecord
100
AcDbDimStyleTableRecord
  2
ME10_DIM_12
 70
     0
 41
3.0
 42
0.5
 44
1.0
 73
     0
 74
     0
 77
     1
 78
     8
140
3.0
147
2.0
172
     1
173
     1
174
     1
175
     1
176
     2
177
     2
271
     2
178
     4
271
     2
340
387
  0
ENDTAB
  0
TABLE
  2
BLOCK_RECORD
  5
1
330
0
100
AcDbSymbolTable
 70
     4
  0
BLOCK_RECORD
  5
1F
330
1
100
AcDbSymbolTableRecord
100
AcDbBlockTableRecord
  2
*Model_Space
340
22
  0
BLOCK_RECORD
  5
1B
330
1
100
AcDbSymbolTableRecord
100
AcDbBlockTableRecord
  2
*Paper_Space
340
1E
  0
BLOCK_RECORD
  5
23
330
1
100
AcDbSymbolTableRecord
100
AcDbBlockTableRecord
  2
*Paper_Space0
340
26
  0
BLOCK_RECORD
  5
381
330
1
100
AcDbSymbolTableRecord
100
AcDbBlockTableRecord
  2
*D1
340
0
  0
BLOCK_RECORD
  5
38D
330
1
100
AcDbSymbolTableRecord
100
AcDbBlockTableRecord
  2
*D2
340
0
  0
BLOCK_RECORD
  5
398
330
1
100
AcDbSymbolTableRecord
100
AcDbBlockTableRecord
  2
*D3
340
0
  0
ENDTAB
  0
ENDSEC
  0
SECTION
  2
BLOCKS
  0
BLOCK
  5
20
330
1F
100
AcDbEntity
  8
0
100
AcDbBlockBegin
  2
*Model_Space
 70
     0
 10
0.0
 20
0.0
 30
0.0
  3
*Model_Space
  1

  0
ENDBLK
  5
21
330
1F
100
AcDbEntity
  8
0
100
AcDbBlockEnd
  0
BLOCK
  5
1C
330
1B
100
AcDbEntity
 67
     1
  8
0
100
AcDbBlockBegin
  2
*Paper_Space
 70
     0
 10
0.0
 20
0.0
 30
0.0
  3
*Paper_Space
  1

  0
ENDBLK
  5
1D
330
1B
100
AcDbEntity
 67
     1
  8
0
100
AcDbBlockEnd
  0
BLOCK
  5
24
330
23
100
AcDbEntity
  8
0
100
AcDbBlockBegin
  2
*Paper_Space0
 70
     0
 10
0.0
 20
0.0
 30
0.0
  3
*Paper_Space0
  1

  0
ENDBLK
  5
25
330
23
100
AcDbEntity
  8
0
100
AcDbBlockEnd
  0
BLOCK
  5
389
330
381
100
AcDbEntity
  8
0
100
AcDbBlockBegin
  2
*D1
 70
     1
 10
0.0
 20
0.0
 30
0.0
  3
*D1
  1

  0
LINE
  5
382
330
381
100
AcDbEntity
  8
1
  6
Continuous
 62
     2
100
AcDbLine
 10
-149.909945026655
 20
137.7215057175225
 30
0.0
 11
-120.5099450266549
 21
137.7215057175225
 31
0.0
  0
LINE
  5
383
330
381
100
AcDbEntity
  8
1
  6
Continuous
 62
     2
100
AcDbLine
 10
-120.5099450266549
 20
152.5965957437747
 30
0.0
 11
-120.5099450266549
 21
136.7215057175225
 31
0.0
  0
LINE
  5
384
330
381
100
AcDbEntity
  8
1
  6
Continuous
 62
     2
100
AcDbLine
 10
-149.909945026655
 20
152.5965957437747
 30
0.0
 11
-149.909945026655
 21
136.7215057175225
 31
0.0
  0
SOLID
  5
385
330
381
100
AcDbEntity
  8
1
 62
     2
100
AcDbTrace
 10
-146.909945026655
 20
138.1164632102847
 30
0.0
 11
-146.909945026655
 21
137.3265482247603
 31
0.0
 12
-149.909945026655
 22
137.7215057175225
 32
0.0
 13
-149.909945026655
 23
137.7215057175225
 33
0.0
  0
SOLID
  5
386
330
381
100
AcDbEntity
  8
1
 62
     2
100
AcDbTrace
 10
-123.5099450266549
 20
137.3265482247603
 30
0.0
 11
-123.5099450266549
 21
138.1164632102847
 31
0.0
 12
-120.5099450266549
 22
137.7215057175225
 32
0.0
 13
-120.5099450266549
 23
137.7215057175225
 33
0.0
  0
MTEXT
  5
388
330
381
100
AcDbEntity
  8
1
 62
     4
100
AcDbMText
 10
-139.334945026655
 20
140.0215057175225
 30
0.0
 40
3.0
 41
0.0
 71
     7
 72
     1
  1
29,4
  7
CONVERTER_14
 11
0.9999999999970619
 21
2.424068405545306E-6
 31
0.0
 73
     1
 44
0.60024009603842
  0
ENDBLK
  5
38A
330
381
100
AcDbEntity
  8
0
100
AcDbBlockEnd
  0
BLOCK
  5
394
330
38D
100
AcDbEntity
  8
0
100
AcDbBlockBegin
  2
*D2
 70
     1
 10
0.0
 20
0.0
 30
0.0
  3
*D2
  1

  0
LINE
  5
38E
330
38D
100
AcDbEntity
  8
1
  6
Continuous
 62
     2
100
AcDbLine
 10
-33.082147024504
 20
193.0965957437748
 30
0.0
 11
-33.082147024504
 21
153.0965957437748
 31
0.0
  0
LINE
  5
38F
330
38D
100
AcDbEntity
  8
1
  6
Continuous
 62
     2
100
AcDbLine
 10
-49.58602267044488
 20
153.0965957437748
 30
0.0
 11
-32.082147024504
 21
153.0965957437748
 31
0.0
  0
LINE
  5
390
330
38D
100
AcDbEntity
  8
1
  6
Continuous
 62
     2
100
AcDbLine
 10
-51.41102267044486
 20
193.0965957437748
 30
0.0
 11
-32.082147024504
 21
193.0965957437748
 31
0.0
  0
SOLID
  5
391
330
38D
100
AcDbEntity
  8
1
 62
     2
100
AcDbTrace
 10
-32.68718953174182
 20
190.0965957437748
 30
0.0
 11
-33.47710451726619
 21
190.0965957437748
 31
0.0
 12
-33.082147024504
 22
193.0965957437748
 32
0.0
 13
-33.082147024504
 23
193.0965957437748
 33
0.0
  0
SOLID
  5
392
330
38D
100
AcDbEntity
  8
1
 62
     2
100
AcDbTrace
 10
-33.47710451726619
 20
156.0965957437748
 30
0.0
 11
-32.68718953174182
 21
156.0965957437748
 31
0.0
 12
-33.082147024504
 22
153.0965957437748
 32
0.0
 13
-33.082147024504
 23
153.0965957437748
 33
0.0
  0
MTEXT
  5
393
330
38D
100
AcDbEntity
  8
1
 62
     4
100
AcDbMText
 10
-35.082147024504
 20
170.8465957437748
 30
0.0
 40
3.0
 41
0.0
 71
     7
 72
     1
  1
40
  7
CONVERTER_14
 11
0.0
 21
1.0
 31
0.0
 73
     1
 44
0.60024009603842
  0
ENDBLK
  5
395
330
38D
100
AcDbEntity
  8
0
100
AcDbBlockEnd
  0
BLOCK
  5
39F
330
398
100
AcDbEntity
  8
0
100
AcDbBlockBegin
  2
*D3
 70
     1
 10
0.0
 20
0.0
 30
0.0
  3
*D3
  1

  0
LINE
  5
399
330
398
100
AcDbEntity
  8
1
  6
Continuous
 62
     2
100
AcDbLine
 10
-50.08602267044489
 20
137.8215031806375
 30
0.0
 11
-80.08602267044489
 21
137.8215031806375
 31
0.0
  0
LINE
  5
39A
330
398
100
AcDbEntity
  8
1
  6
Continuous
 62
     2
100
AcDbLine
 10
-80.08602267044489
 20
152.5965957437746
 30
0.0
 11
-80.08602267044489
 21
136.8215031806375
 31
0.0
  0
LINE
  5
39B
330
398
100
AcDbEntity
  8
1
  6
Continuous
 62
     2
100
AcDbLine
 10
-50.08602267044489
 20
152.5965957437747
 30
0.0
 11
-50.08602267044489
 21
136.8215031806375
 31
0.0
  0
SOLID
  5
39C
330
398
100
AcDbEntity
  8
1
 62
     2
100
AcDbTrace
 10
-53.08602267044489
 20
137.4265456878753
 30
0.0
 11
-53.08602267044489
 21
138.2164606733997
 31
0.0
 12
-50.08602267044489
 22
137.8215031806375
 32
0.0
 13
-50.08602267044489
 23
137.8215031806375
 33
0.0
  0
SOLID
  5
39D
330
398
100
AcDbEntity
  8
1
 62
     2
100
AcDbTrace
 10
-77.08602267044489
 20
138.2164606733997
 30
0.0
 11
-77.08602267044489
 21
137.4265456878753
 31
0.0
 12
-80.08602267044489
 22
137.8215031806375
 32
0.0
 13
-80.08602267044489
 23
137.8215031806375
 33
0.0
  0
MTEXT
  5
39E
330
398
100
AcDbEntity
  8
1
 62
     4
100
AcDbMText
 10
-67.33602267044489
 20
139.8215031806375
 30
0.0
 40
3.0
 41
0.0
 71
     7
 72
     1
  1
30
  7
CONVERTER_14
 11
0.9999999999970619
 21
2.424068405545306E-6
 31
0.0
 73
     1
 44
0.60024009603842
  0
ENDBLK
  5
3A0
330
398
100
AcDbEntity
  8
0
100
AcDbBlockEnd
  0
ENDSEC
  0
SECTION
  2
ENTITIES
  0
LINE
  5
47
330
1F
100
AcDbEntity
  8
1
  6
Continuous
 62
     7
100
AcDbLine
 10
-57.08602267044489
 20
157.0965957437748
 30
0.0
 11
-50.08602267044489
 21
157.0965957437748
 31
0.0
  0
LINE
  5
48
330
1F
100
AcDbEntity
  8
1
  6
Continuous
 62
     7
100
AcDbLine
 10
-72.53602267044491
 20
157.0965957437748
 30
0.0
 11
-80.08602267044489
 21
157.0965957437748
 31
0.0
  0
LINE
  5
49
330
1F
100
AcDbEntity
  8
0
  6
Continuous
 62
     7
100
AcDbLine
 10
-120.509945026655
 20
157.0965957437748
 30
0.0
 11
-119.609945026655
 21
157.0965957437747
 31
0.0
  0
LINE
  5
4A
330
1F
100
AcDbEntity
  8
0
  6
Continuous
 62
     7
100
AcDbLine
 10
-143.3001620266549
 20
225.6741027675404
 30
0.0
 11
-142.5501620266549
 21
224.2741027675405
 31
0.0
  0
LINE
  5
4B
330
1F
100
AcDbEntity
  8
0
  6
Continuous
 62
     7
100
AcDbLine
 10
-142.5501620266549
 20
224.2741027675405
 30
0.0
 11
-141.8001620266554
 21
225.6741027675405
 31
0.0
  0
LINE
  5
4C
330
1F
100
AcDbEntity
  8
0
  6
Continuous
 62
     7
100
AcDbLine
 10
-141.8001620266554
 20
225.6741027675405
 30
0.0
 11
-143.3001620266549
 21
225.6741027675404
 31
0.0
  0
LINE
  5
4D
330
1F
100
AcDbEntity
  8
1
  6
Continuous
 62
     7
100
AcDbLine
 10
-148.909945026655
 20
254.8741027675406
 30
0.0
 11
-148.9099450266549
 21
252.5241027675405
 31
0.0
  0
LINE
  5
4E
330
1F
100
AcDbEntity
  8
1
  6
Continuous
 62
     7
100
AcDbLine
 10
-148.909945026655
 20
227.0741027675406
 30
0.0
 11
-148.9099450266549
 21
229.4241027675405
 31
0.0
  0
LINE
  5
4F
330
1F
100
AcDbEntity
  8
1
  6
Continuous
 62
     7
100
AcDbLine
 10
-149.9099450266549
 20
225.9741027675405
 30
0.0
 11
-149.909945026655
 21
229.4241027675406
 31
0.0
  0
LINE
  5
50
330
1F
100
AcDbEntity
  8
0
  6
Continuous
 62
     7
100
AcDbLine
 10
-48.08602267044489
 20
160.0965957437748
 30
0.0
 11
-48.08602267044489
 21
157.0965957437748
 31
0.0
  0
LINE
  5
51
330
1F
100
AcDbEntity
  8
0
  6
Continuous
 62
     7
100
AcDbLine
 10
-50.08602267044489
 20
160.5965957437748
 30
0.0
 11
-50.08602267044489
 21
157.0965957437748
 31
0.0
  0
LINE
  5
52
330
1F
100
AcDbEntity
  8
0
  6
Continuous
 62
     7
100
AcDbLine
 10
-48.08602267044489
 20
160.5965957437748
 30
0.0
 11
-48.08602267044489
 21
160.0965957437748
 31
0.0
  0
LINE
  5
53
330
1F
100
AcDbEntity
  8
0
  6
Continuous
 62
     7
100
AcDbLine
 10
-120.509945026655
 20
167.0965957437748
 30
0.0
 11
-119.609945026655
 21
167.0965957437748
 31
0.0
  0
LINE
  5
54
330
1F
100
AcDbEntity
  8
0
  6
Continuous
 62
     7
100
AcDbLine
 10
-119.609945026655
 20
167.0965957437748
 30
0.0
 11
-119.609945026655
 21
157.0965957437747
 31
0.0
  0
LINE
  5
55
330
1F
100
AcDbEntity
  8
0
  6
Continuous
 62
     7
100
AcDbLine
 10
-73.53602267044494
 20
157.0965957437747
 30
0.0
 11
-73.53602267044488
 21
167.0965957437748
 31
0.0
  0
LINE
  5
56
330
1F
100
AcDbEntity
  8
0
  6
Continuous
 62
     7
100
AcDbLine
 10
-56.6360226704449
 20
167.0965957437748
 30
0.0
 11
-56.6360226704449
 21
157.0965957437747
 31
0.0
  0
LINE
  5
57
330
1F
100
AcDbEntity
  8
0
  6
Continuous
 62
     7
100
AcDbLine
 10
-53.53602267044488
 20
167.0965957437748
 30
0.0
 11
-56.6360226704449
 21
167.0965957437748
 31
0.0
  0
LINE
  5
58
330
1F
100
AcDbEntity
  8
0
  6
Continuous
 62
     7
100
AcDbLine
 10
-53.53602267044494
 20
157.0965957437747
 30
0.0
 11
-53.53602267044488
 21
167.0965957437748
 31
0.0
  0
LINE
  5
59
330
1F
100
AcDbEntity
  8
0
  6
Continuous
 62
     7
100
AcDbLine
 10
-76.6360226704449
 20
167.0965957437748
 30
0.0
 11
-76.6360226704449
 21
157.0965957437747
 31
0.0
  0
LINE
  5
5A
330
1F
100
AcDbEntity
  8
0
  6
Continuous
 62
     7
100
AcDbLine
 10
-76.6360226704449
 20
167.0965957437748
 30
0.0
 11
-73.53602267044488
 21
167.0965957437748
 31
0.0
  0
LINE
  5
5B
330
1F
100
AcDbEntity
  8
0
  6
Continuous
 62
     7
100
AcDbLine
 10
-120.509945026655
 20
230.6380398829638
 30
0.0
 11
-120.509945026655
 21
231.3101656521168
 31
0.0
  0
LINE
  5
5C
330
1F
100
AcDbEntity
  8
0
  6
Continuous
 62
     7
100
AcDbLine
 10
-148.9099450266549
 20
249.4241027675405
 30
0.0
 11
-148.9099450266549
 21
252.5241027675405
 31
0.0
  0
LINE
  5
5D
330
1F
100
AcDbEntity
  8
0
  6
Continuous
 62
     7
100
AcDbLine
 10
-120.509945026655
 20
250.6380398829639
 30
0.0
 11
-120.509945026655
 21
251.310165652117
 31
0.0
  0
LINE
  5
5E
330
1F
100
AcDbEntity
  8
0
  6
Continuous
 62
     7
100
AcDbLine
 10
-148.9099450266549
 20
232.5241027675405
 30
0.0
 11
-149.9099450266549
 21
232.5241027675405
 31
0.0
  0
LINE
  5
5F
330
1F
100
AcDbEntity
  8
0
  6
Continuous
 62
     7
100
AcDbLine
 10
-149.909945026655
 20
229.4241027675406
 30
0.0
 11
-148.9099450266549
 21
229.4241027675405
 31
0.0
  0
LINE
  5
60
330
1F
100
AcDbEntity
  8
0
  6
Continuous
 62
     7
100
AcDbLine
 10
-148.9099450266549
 20
252.5241027675405
 30
0.0
 11
-149.9099450266549
 21
252.5241027675405
 31
0.0
  0
LINE
  5
61
330
1F
100
AcDbEntity
  8
0
  6
Continuous
 62
     7
100
AcDbLine
 10
-148.9099450266549
 20
229.4241027675405
 30
0.0
 11
-148.9099450266549
 21
232.5241027675405
 31
0.0
  0
LINE
  5
62
330
1F
100
AcDbEntity
  8
0
  6
Continuous
 62
     7
100
AcDbLine
 10
-127.1001620266551
 20
225.6741027675405
 30
0.0
 11
-128.6001620266547
 21
225.6741027675404
 31
0.0
  0
LINE
  5
63
330
1F
100
AcDbEntity
  8
0
  6
Continuous
 62
     7
100
AcDbLine
 10
-127.8501620266547
 20
224.2741027675405
 30
0.0
 11
-127.1001620266551
 21
225.6741027675405
 31
0.0
  0
LINE
  5
64
330
1F
100
AcDbEntity
  8
0
  6
Continuous
 62
     7
100
AcDbLine
 10
-128.6001620266547
 20
225.6741027675404
 30
0.0
 11
-127.8501620266547
 21
224.2741027675405
 31
0.0
  0
LINE
  5
65
330
1F
100
AcDbEntity
  8
0
  6
Continuous
 62
     7
100
AcDbLine
 10
-149.909945026655
 20
249.4241027675406
 30
0.0
 11
-148.9099450266549
 21
249.4241027675405
 31
0.0
  0
LINE
  5
66
330
1F
100
AcDbEntity
  8
0
  6
Continuous
 62
     7
100
AcDbLine
 10
-119.609945026655
 20
230.6380398829638
 30
0.0
 11
-119.609945026655
 21
229.6380398829639
 31
0.0
  0
LINE
  5
67
330
1F
100
AcDbEntity
  8
0
  6
Continuous
 62
     7
100
AcDbLine
 10
-119.609945026655
 20
250.6380398829639
 30
0.0
 11
-119.609945026655
 21
249.6380398829639
 31
0.0
  0
LINE
  5
68
330
1F
100
AcDbEntity
  8
0
  6
Continuous
 62
     7
100
AcDbLine
 10
-120.509945026655
 20
232.310165652117
 30
0.0
 11
-119.609945026655
 21
232.310165652117
 31
0.0
  0
LINE
  5
69
330
1F
100
AcDbEntity
  8
0
  6
Continuous
 62
     7
100
AcDbLine
 10
-119.609945026655
 20
231.3101656521168
 30
0.0
 11
-120.509945026655
 21
231.3101656521168
 31
0.0
  0
LINE
  5
6A
330
1F
100
AcDbEntity
  8
0
  6
Continuous
 62
     7
100
AcDbLine
 10
-119.609945026655
 20
249.6380398829639
 30
0.0
 11
-120.509945026655
 21
249.6380398829639
 31
0.0
  0
LINE
  5
6B
330
1F
100
AcDbEntity
  8
0
  6
Continuous
 62
     7
100
AcDbLine
 10
-120.509945026655
 20
250.6380398829639
 30
0.0
 11
-119.609945026655
 21
250.6380398829639
 31
0.0
  0
LINE
  5
6C
330
1F
100
AcDbEntity
  8
0
  6
Continuous
 62
     7
100
AcDbLine
 10
-119.609945026655
 20
232.310165652117
 30
0.0
 11
-119.609945026655
 21
231.3101656521168
 31
0.0
  0
LINE
  5
6D
330
1F
100
AcDbEntity
  8
0
  6
Continuous
 62
     7
100
AcDbLine
 10
-119.609945026655
 20
251.310165652117
 30
0.0
 11
-120.509945026655
 21
251.310165652117
 31
0.0
  0
LINE
  5
6E
330
1F
100
AcDbEntity
  8
0
  6
Continuous
 62
     7
100
AcDbLine
 10
-120.509945026655
 20
252.310165652117
 30
0.0
 11
-119.609945026655
 21
252.310165652117
 31
0.0
  0
LINE
  5
6F
330
1F
100
AcDbEntity
  8
0
  6
Continuous
 62
     7
100
AcDbLine
 10
-119.609945026655
 20
252.310165652117
 30
0.0
 11
-119.609945026655
 21
251.310165652117
 31
0.0
  0
LINE
  5
70
330
1F
100
AcDbEntity
  8
0
  6
Continuous
 62
     7
100
AcDbLine
 10
-119.609945026655
 20
229.6380398829639
 30
0.0
 11
-120.509945026655
 21
229.638039882964
 31
0.0
  0
LINE
  5
71
330
1F
100
AcDbEntity
  8
0
  6
Continuous
 62
     7
100
AcDbLine
 10
-120.509945026655
 20
230.6380398829638
 30
0.0
 11
-119.609945026655
 21
230.6380398829638
 31
0.0
  0
LINE
  5
72
330
1F
100
AcDbEntity
  8
0
  6
Continuous
 62
     7
100
AcDbLine
 10
-120.5099450266551
 20
88.60385080701707
 30
0.0
 11
-119.6099450266551
 21
88.60385080701707
 31
0.0
  0
LINE
  5
73
330
1F
100
AcDbEntity
  8
0
  6
Continuous
 62
     7
100
AcDbLine
 10
-119.6099450266551
 20
89.60385080701701
 30
0.0
 11
-120.5099450266551
 21
89.60385080701701
 31
0.0
  0
LINE
  5
74
330
1F
100
AcDbEntity
  8
0
  6
Continuous
 62
     7
100
AcDbLine
 10
-120.5099450266551
 20
86.93172503786406
 30
0.0
 11
-119.6099450266551
 21
86.93172503786406
 31
0.0
  0
LINE
  5
75
330
1F
100
AcDbEntity
  8
0
  6
Continuous
 62
     7
100
AcDbLine
 10
-119.6099450266551
 20
87.93172503786406
 30
0.0
 11
-120.5099450266551
 21
87.93172503786406
 31
0.0
  0
LINE
  5
76
330
1F
100
AcDbEntity
  8
0
  6
Continuous
 62
     7
100
AcDbLine
 10
-119.6099450266551
 20
86.93172503786406
 30
0.0
 11
-119.6099450266551
 21
87.93172503786406
 31
0.0
  0
LINE
  5
77
330
1F
100
AcDbEntity
  8
0
  6
Continuous
 62
     7
100
AcDbLine
 10
-119.6099450266551
 20
88.60385080701707
 30
0.0
 11
-119.6099450266551
 21
89.60385080701701
 31
0.0
  0
LINE
  5
78
330
1F
100
AcDbEntity
  8
0
  6
Continuous
 62
     7
100
AcDbLine
 10
-119.6099450266551
 20
108.6038508070171
 30
0.0
 11
-119.6099450266551
 21
109.6038508070171
 31
0.0
  0
LINE
  5
79
330
1F
100
AcDbEntity
  8
0
  6
Continuous
 62
     7
100
AcDbLine
 10
-120.5099450266551
 20
106.9317250378641
 30
0.0
 11
-119.6099450266551
 21
106.9317250378641
 31
0.0
  0
LINE
  5
7A
330
1F
100
AcDbEntity
  8
0
  6
Continuous
 62
     7
100
AcDbLine
 10
-119.6099450266551
 20
109.6038508070171
 30
0.0
 11
-120.5099450266551
 21
109.6038508070171
 31
0.0
  0
LINE
  5
7B
330
1F
100
AcDbEntity
  8
0
  6
Continuous
 62
     7
100
AcDbLine
 10
-119.6099450266551
 20
107.9317250378642
 30
0.0
 11
-120.5099450266551
 21
107.9317250378642
 31
0.0
  0
LINE
  5
7C
330
1F
100
AcDbEntity
  8
0
  6
Continuous
 62
     7
100
AcDbLine
 10
-119.6099450266551
 20
106.9317250378641
 30
0.0
 11
-119.6099450266551
 21
107.9317250378642
 31
0.0
  0
LINE
  5
7D
330
1F
100
AcDbEntity
  8
0
  6
Continuous
 62
     7
100
AcDbLine
 10
-120.5099450266551
 20
108.6038508070171
 30
0.0
 11
-119.6099450266551
 21
108.6038508070171
 31
0.0
  0
LINE
  5
7E
330
1F
100
AcDbEntity
  8
1
  6
Continuous
 62
     7
100
AcDbLine
 10
-135.209945026655
 20
167.0593720080304
 30
0.0
 11
-134.8128060620776
 21
167.7472368723439
 31
0.0
  0
LINE
  5
7F
330
1F
100
AcDbEntity
  8
1
  6
Continuous
 62
     7
100
AcDbLine
 10
-135.592097615211
 20
167.721279707653
 30
0.0
 11
-135.209945026655
 21
167.0593720080304
 31
0.0
  0
LINE
  5
80
330
1F
100
AcDbEntity
  8
1
  6
Continuous
 62
     7
100
AcDbLine
 10
-134.8128060620776
 20
165.9273938298844
 30
0.0
 11
-134.8128060620776
 21
167.7472368723439
 31
0.0
  0
LINE
  5
81
330
1F
100
AcDbEntity
  8
1
  6
Continuous
 62
     7
100
AcDbLine
 10
-135.592097615211
 20
166.3974643084081
 30
0.0
 11
-135.592097615211
 21
167.721279707653
 31
0.0
  0
LINE
  5
82
330
1F
100
AcDbEntity
  8
1
  6
Continuous
 62
     7
100
AcDbLine
 10
-135.9967297677995
 20
167.5811803894933
 30
0.0
 11
-135.9967297677995
 21
166.1521894702115
 31
0.0
  0
LINE
  5
83
330
1F
100
AcDbEntity
  8
1
  6
Continuous
 62
     7
100
AcDbLine
 10
-136.3813800856927
 20
166.3741031151496
 30
0.0
 11
-136.3813800856927
 21
167.3592667445548
 31
0.0
  0
LINE
  5
84
330
1F
100
AcDbEntity
  8
1
  6
Continuous
 62
     7
100
AcDbLine
 10
-135.9967297677995
 20
166.1521894702115
 30
0.0
 11
-135.2230643725915
 21
165.7058440498992
 31
0.0
  0
LINE
  5
85
330
1F
100
AcDbEntity
  8
1
  6
Continuous
 62
     7
100
AcDbLine
 10
-134.4231602855106
 20
166.1521894702115
 30
0.0
 11
-133.948526808676
 21
166.4260164760775
 31
0.0
  0
LINE
  5
86
330
1F
100
AcDbEntity
  8
1
  6
Continuous
 62
     7
100
AcDbLine
 10
-134.4231602855106
 20
167.5743891415677
 30
0.0
 11
-133.948526808676
 21
167.3005621357017
 31
0.0
  0
LINE
  5
87
330
1F
100
AcDbEntity
  8
1
  6
Continuous
 62
     7
100
AcDbLine
 10
-134.4231602855106
 20
167.5743891415677
 30
0.0
 11
-134.4231602855106
 21
166.1521894702115
 31
0.0
  0
LINE
  5
88
330
1F
100
AcDbEntity
  8
1
  6
Continuous
 62
     7
100
AcDbLine
 10
-134.4231602855106
 20
166.8577904883891
 30
0.0
 11
-133.9355617895125
 21
166.8577904883891
 31
0.0
  0
LINE
  5
89
330
1F
100
AcDbEntity
  8
1
  6
Continuous
 62
     7
100
AcDbLine
 10
-135.209945026655
 20
165.3926690398332
 30
0.0
 11
-137.6854210833701
 21
166.8208283033227
 31
0.0
  0
LINE
  5
8A
330
1F
100
AcDbEntity
  8
1
  6
Continuous
 62
     7
100
AcDbLine
 10
-132.7344689699401
 20
166.8208283033227
 30
0.0
 11
-135.209945026655
 21
165.3926690398332
 31
0.0
  0
LINE
  5
8B
330
1F
100
AcDbEntity
  8
1
  6
Continuous
 62
     7
100
AcDbLine
 10
-135.209945026655
 20
168.333909571946
 30
0.0
 11
-132.7344689699401
 21
166.9057503084566
 31
0.0
  0
LINE
  5
8C
330
1F
100
AcDbEntity
  8
1
  6
Continuous
 62
     7
100
AcDbLine
 10
-137.6854210833701
 20
166.9057503084566
 30
0.0
 11
-135.209945026655
 21
168.333909571946
 31
0.0
  0
LINE
  5
8D
330
1F
100
AcDbEntity
  8
1
  6
Continuous
 62
     7
100
AcDbLine
 10
-189.0
 20
14.99999999999989
 30
0.0
 11
-159.0
 21
14.99999999999989
 31
0.0
  0
LINE
  5
8E
330
1F
100
AcDbEntity
  8
1
  6
Continuous
 62
     7
100
AcDbLine
 10
-189.0
 20
20.0
 30
0.0
 11
-189.0
 21
4.99999999999989
 31
0.0
  0
LINE
  5
8F
330
1F
100
AcDbEntity
  8
1
  6
Continuous
 62
     7
100
AcDbLine
 10
-49.0
 20
20.0
 30
0.0
 11
-49.0
 21
5.0
 31
0.0
  0
LINE
  5
90
330
1F
100
AcDbEntity
  8
1
  6
Continuous
 62
     7
100
AcDbLine
 10
-31.64739862251463
 20
20.0
 30
0.0
 11
-31.64739862251463
 21
5.0
 31
0.0
  0
LINE
  5
91
330
1F
100
AcDbEntity
  8
1
  6
Continuous
 62
     7
100
AcDbLine
 10
-159.0
 20
20.0
 30
0.0
 11
-159.0
 21
5.0
 31
0.0
  0
LINE
  5
92
330
1F
100
AcDbEntity
  8
1
  6
Continuous
 62
     7
100
AcDbLine
 10
-189.0
 20
9.99999999999989
 30
0.0
 11
-159.0
 21
9.99999999999989
 31
0.0
  0
LINE
  5
93
330
1F
100
AcDbEntity
  8
1
  6
Continuous
 62
     7
100
AcDbLine
 10
-210.0000000000001
 20
148.4999999999998
 30
0.0
 11
-195.0000000000001
 21
148.4999999999998
 31
0.0
  0
LINE
  5
94
330
1F
100
AcDbEntity
  8
1
  6
Continuous
 62
     7
100
AcDbLine
 10
0.0
 20
0.0
 30
0.0
 11
0.0
 21
297.0000000000001
 31
0.0
  0
LINE
  5
95
330
1F
100
AcDbEntity
  8
1
  6
Continuous
 62
     7
100
AcDbLine
 10
-210.0000000000001
 20
0.0
 30
0.0
 11
0.0
 21
0.0
 31
0.0
  0
LINE
  5
96
330
1F
100
AcDbEntity
  8
1
  6
Continuous
 62
     7
100
AcDbLine
 10
-210.0000000000001
 20
297.0000000000001
 30
0.0
 11
-210.0000000000001
 21
0.0
 31
0.0
  0
LINE
  5
97
330
1F
100
AcDbEntity
  8
1
  6
Continuous
 62
     7
100
AcDbLine
 10
0.0
 20
297.0000000000001
 30
0.0
 11
-210.0000000000001
 21
297.0000000000001
 31
0.0
  0
LINE
  5
98
330
1F
100
AcDbEntity
  8
1
  6
Continuous
 62
     7
100
AcDbLine
 10
-5.0
 20
4.99999999999989
 30
0.0
 11
-5.0
 21
292.0000000000001
 31
0.0
  0
LINE
  5
99
330
1F
100
AcDbEntity
  8
1
  6
Continuous
 62
     7
100
AcDbLine
 10
-5.0
 20
292.0000000000001
 30
0.0
 11
-189.0
 21
292.0000000000001
 31
0.0
  0
LINE
  5
9A
330
1F
100
AcDbEntity
  8
1
  6
Continuous
 62
     7
100
AcDbLine
 10
-189.0
 20
292.0000000000001
 30
0.0
 11
-189.0
 21
4.99999999999989
 31
0.0
  0
LINE
  5
9B
102
{ACAD_REACTORS
330
3A6
102
}
330
1F
100
AcDbEntity
  8
1
  6
Continuous
 62
     7
100
AcDbLine
 10
-15.99036597792394
 20
10.07749983983263
 30
0.0
 11
-15.99036597792394
 21
14.92250016016737
 31
0.0
  0
LINE
  5
9C
102
{ACAD_REACTORS
330
3A3
102
}
330
1F
100
AcDbEntity
  8
1
  6
Continuous
 62
     7
100
AcDbLine
 10
-17.32369931125732
 20
12.5
 30
0.0
 11
-17.32369931125732
 21
14.23205080756884
 31
0.0
  0
LINE
  5
9D
102
{ACAD_REACTORS
330
3A3
102
}
330
1F
100
AcDbEntity
  8
1
  6
Continuous
 62
     7
100
AcDbLine
 10
-17.32369931125732
 20
14.23205080756884
 30
0.0
 11
-18.17936174395993
 21
12.75
 31
0.0
  0
LINE
  5
9E
102
{ACAD_REACTORS
330
3A3
102
}
330
1F
100
AcDbEntity
  8
1
  6
Continuous
 62
     7
100
AcDbLine
 10
-18.46803687855481
 20
12.75
 30
0.0
 11
-19.32369931125732
 21
14.23205080756884
 31
0.0
  0
LINE
  5
9F
102
{ACAD_REACTORS
330
3A3
102
}
330
1F
100
AcDbEntity
  8
1
  6
Continuous
 62
     7
100
AcDbLine
 10
-19.32369931125732
 20
14.23205080756884
 30
0.0
 11
-19.32369931125732
 21
12.5
 31
0.0
  0
LINE
  5
A0
330
1F
100
AcDbEntity
  8
1
  6
Continuous
 62
     7
100
AcDbLine
 10
-26.74013458639888
 20
12.64436426434133
 30
0.0
 11
-18.32369931125732
 21
17.5
 31
0.0
  0
LINE
  5
A1
330
1F
100
AcDbEntity
  8
1
  6
Continuous
 62
     7
100
AcDbLine
 10
-18.32369931125732
 20
17.5
 30
0.0
 11
-9.90726403611586
 21
12.64436426434133
 31
0.0
  0
LINE
  5
A2
330
1F
100
AcDbEntity
  8
1
  6
Continuous
 62
     7
100
AcDbLine
 10
-9.90726403611586
 20
12.35563573565855
 30
0.0
 11
-18.32369931125732
 21
7.5
 31
0.0
  0
LINE
  5
A3
330
1F
100
AcDbEntity
  8
1
  6
Continuous
 62
     7
100
AcDbLine
 10
-18.32369931125732
 20
7.5
 30
0.0
 11
-26.74013458639888
 21
12.35563573565855
 31
0.0
  0
LINE
  5
A4
102
{ACAD_REACTORS
330
3A3
102
}
330
1F
100
AcDbEntity
  8
1
  6
Continuous
 62
     7
100
AcDbLine
 10
-19.99036597792406
 20
12.5
 30
0.0
 11
-19.99036597792406
 21
15.73121731203457
 31
0.0
  0
LINE
  5
A5
102
{ACAD_REACTORS
330
3A3
102
}
330
1F
100
AcDbEntity
  8
1
  6
Continuous
 62
     7
100
AcDbLine
 10
-19.49593229430059
 20
15.86370041827229
 30
0.0
 11
-18.32369931125732
 21
13.83333333333326
 31
0.0
  0
LINE
  5
A6
102
{ACAD_REACTORS
330
3A3
102
}
330
1F
100
AcDbEntity
  8
1
  6
Continuous
 62
     7
100
AcDbLine
 10
-19.99036597792406
 20
12.5
 30
0.0
 11
-19.99036597792406
 21
10.84758507263291
 31
0.0
  0
LINE
  5
A7
102
{ACAD_REACTORS
330
3A3
102
}
330
1F
100
AcDbEntity
  8
1
  6
Continuous
 62
     7
100
AcDbLine
 10
-19.32369931125732
 20
10.84758507263291
 30
0.0
 11
-19.32369931125732
 21
12.5
 31
0.0
  0
LINE
  5
A8
102
{ACAD_REACTORS
330
3A3
102
}
330
1F
100
AcDbEntity
  8
1
  6
Continuous
 62
     7
100
AcDbLine
 10
-17.32369931125732
 20
12.5
 30
0.0
 11
-17.32369931125732
 21
9.3082690706018
 31
0.0
  0
LINE
  5
A9
102
{ACAD_REACTORS
330
3A3
102
}
330
1F
100
AcDbEntity
  8
1
  6
Continuous
 62
     7
100
AcDbLine
 10
-16.65703264459069
 20
9.3082690706018
 30
0.0
 11
-16.65703264459069
 21
15.73121731203457
 31
0.0
  0
LINE
  5
AA
102
{ACAD_REACTORS
330
3A3
102
}
330
1F
100
AcDbEntity
  8
1
  6
Continuous
 62
     7
100
AcDbLine
 10
-17.15146632821404
 20
15.86370041827229
 30
0.0
 11
-18.32369931125732
 21
13.83333333333326
 31
0.0
  0
LINE
  5
AB
102
{ACAD_REACTORS
330
3A4
102
}
330
1F
100
AcDbEntity
  8
1
  6
Continuous
 62
     7
100
AcDbLine
 10
-21.32369931125732
 20
10.27002114803258
 30
0.0
 11
-21.32369931125732
 21
14.92250016016737
 31
0.0
  0
LINE
  5
AC
102
{ACAD_REACTORS
330
3A4
102
}
330
1F
100
AcDbEntity
  8
1
  6
Continuous
 62
     7
100
AcDbLine
 10
-20.65703264459069
 20
14.92250016016737
 30
0.0
 11
-20.65703264459069
 21
10.2700211480327
 31
0.0
  0
LINE
  5
AD
102
{ACAD_REACTORS
330
3A4
102
}
330
1F
100
AcDbEntity
  8
1
  6
Continuous
 62
     7
100
AcDbLine
 10
-20.65703264459069
 20
10.2700211480327
 30
0.0
 11
-18.49045849342748
 21
9.0200745223616
 31
0.0
  0
LINE
  5
AE
102
{ACAD_REACTORS
330
3A4
102
}
330
1F
100
AcDbEntity
  8
1
  6
Continuous
 62
     7
100
AcDbLine
 10
-18.8236067957539
 20
8.44261746499581
 30
0.0
 11
-20.99018094691703
 21
9.69256409066691
 31
0.0
  0
LINE
  5
AF
102
{ACAD_REACTORS
330
3A5
102
}
330
1F
100
AcDbEntity
  8
1
  6
Continuous
 62
     7
100
AcDbLine
 10
-21.99036597792406
 20
14.15326939093666
 30
0.0
 11
-21.99036597792406
 21
11.0392519172633
 31
0.0
  0
LINE
  5
B0
102
{ACAD_REACTORS
330
3A5
102
}
330
1F
100
AcDbEntity
  8
1
  6
Continuous
 62
     7
100
AcDbLine
 10
-21.99036597792406
 20
11.0392519172633
 30
0.0
 11
-21.99036597792406
 21
10.84673060906323
 31
0.0
  0
LINE
  5
B1
102
{ACAD_REACTORS
330
3A5
102
}
330
1F
100
AcDbEntity
  8
1
  6
Continuous
 62
     7
100
AcDbLine
 10
-22.65703264459069
 20
10.84673060906323
 30
0.0
 11
-22.65703264459069
 21
14.15326939093666
 31
0.0
  0
LINE
  5
B2
102
{ACAD_REACTORS
330
3A6
102
}
330
1F
100
AcDbEntity
  8
1
  6
Continuous
 62
     7
100
AcDbLine
 10
-15.49045849342747
 20
15.21122868885027
 30
0.0
 11
-14.15712516009421
 21
14.44199791961944
 31
0.0
  0
LINE
  5
B3
102
{ACAD_REACTORS
330
3A6
102
}
330
1F
100
AcDbEntity
  8
1
  6
Continuous
 62
     7
100
AcDbLine
 10
-14.49027346242053
 20
13.86454086225376
 30
0.0
 11
-15.32369931125731
 21
14.34536346735195
 31
0.0
  0
LINE
  5
B4
102
{ACAD_REACTORS
330
3A6
102
}
330
1F
100
AcDbEntity
  8
1
  6
Continuous
 62
     7
100
AcDbLine
 10
-15.32369931125731
 20
14.34536346735195
 30
0.0
 11
-15.32369931125731
 21
12.83333333333326
 31
0.0
  0
LINE
  5
B5
102
{ACAD_REACTORS
330
3A6
102
}
330
1F
100
AcDbEntity
  8
1
  6
Continuous
 62
     7
100
AcDbLine
 10
-15.32369931125731
 20
12.83333333333326
 30
0.0
 11
-14.32369931125731
 21
12.83333333333326
 31
0.0
  0
LINE
  5
B6
102
{ACAD_REACTORS
330
3A6
102
}
330
1F
100
AcDbEntity
  8
1
  6
Continuous
 62
     7
100
AcDbLine
 10
-14.32369931125731
 20
12.16666666666663
 30
0.0
 11
-15.32369931125731
 21
12.16666666666663
 31
0.0
  0
LINE
  5
B7
102
{ACAD_REACTORS
330
3A6
102
}
330
1F
100
AcDbEntity
  8
1
  6
Continuous
 62
     7
100
AcDbLine
 10
-15.32369931125731
 20
12.16666666666663
 30
0.0
 11
-15.32369931125731
 21
10.65463653264794
 31
0.0
  0
LINE
  5
B8
102
{ACAD_REACTORS
330
3A6
102
}
330
1F
100
AcDbEntity
  8
1
  6
Continuous
 62
     7
100
AcDbLine
 10
-15.32369931125731
 20
10.65463653264794
 30
0.0
 11
-14.49027346242053
 21
11.13545913774624
 31
0.0
  0
LINE
  5
B9
102
{ACAD_REACTORS
330
3A6
102
}
330
1F
100
AcDbEntity
  8
1
  6
Continuous
 62
     7
100
AcDbLine
 10
-14.15712516009421
 20
10.55800208038033
 30
0.0
 11
-15.49045849342747
 21
9.78877131114973
 31
0.0
  0
LINE
  5
BA
330
1F
100
AcDbEntity
  8
1
  6
Continuous
 62
     7
100
AcDbLine
 10
-189.0
 20
25.0
 30
0.0
 11
-5.0
 21
25.0
 31
0.0
  0
LINE
  5
BB
330
1F
100
AcDbEntity
  8
1
  6
Continuous
 62
     7
100
AcDbLine
 10
-182.0
 20
20.0
 30
0.0
 11
-182.0
 21
25.0
 31
0.0
  0
LINE
  5
BC
330
1F
100
AcDbEntity
  8
1
  6
Continuous
 62
     7
100
AcDbLine
 10
-163.9999999999999
 20
20.0
 30
0.0
 11
-163.9999999999999
 21
25.0
 31
0.0
  0
LINE
  5
BD
330
1F
100
AcDbEntity
  8
1
  6
Continuous
 62
     7
100
AcDbLine
 10
-189.0
 20
30.0
 30
0.0
 11
-5.0
 21
30.0
 31
0.0
  0
LINE
  5
BE
330
1F
100
AcDbEntity
  8
1
  6
Continuous
 62
     7
100
AcDbLine
 10
-182.0
 20
25.0
 30
0.0
 11
-182.0
 21
30.0
 31
0.0
  0
LINE
  5
BF
330
1F
100
AcDbEntity
  8
1
  6
Continuous
 62
     7
100
AcDbLine
 10
-163.9999999999999
 20
25.0
 30
0.0
 11
-163.9999999999999
 21
30.0
 31
0.0
  0
LINE
  5
C0
330
1F
100
AcDbEntity
  8
1
  6
Continuous
 62
     7
100
AcDbLine
 10
-189.0
 20
35.0
 30
0.0
 11
-5.0
 21
35.0
 31
0.0
  0
LINE
  5
C1
330
1F
100
AcDbEntity
  8
1
  6
Continuous
 62
     7
100
AcDbLine
 10
-182.0
 20
30.0
 30
0.0
 11
-182.0
 21
35.0
 31
0.0
  0
LINE
  5
C2
330
1F
100
AcDbEntity
  8
1
  6
Continuous
 62
     7
100
AcDbLine
 10
-163.9999999999999
 20
30.0
 30
0.0
 11
-163.9999999999999
 21
35.0
 31
0.0
  0
LINE
  5
C3
330
1F
100
AcDbEntity
  8
1
  6
Continuous
 62
     7
100
AcDbLine
 10
-189.0
 20
40.0
 30
0.0
 11
-5.0
 21
40.0
 31
0.0
  0
LINE
  5
C4
330
1F
100
AcDbEntity
  8
1
  6
Continuous
 62
     7
100
AcDbLine
 10
-182.0
 20
35.0
 30
0.0
 11
-182.0
 21
40.0
 31
0.0
  0
LINE
  5
C5
330
1F
100
AcDbEntity
  8
1
  6
Continuous
 62
     7
100
AcDbLine
 10
-163.9999999999999
 20
35.0
 30
0.0
 11
-163.9999999999999
 21
40.0
 31
0.0
  0
LINE
  5
C6
330
1F
100
AcDbEntity
  8
1
  6
Continuous
 62
     7
100
AcDbLine
 10
-189.0
 20
4.99999999999989
 30
0.0
 11
-5.0
 21
4.99999999999989
 31
0.0
  0
LINE
  5
C7
330
1F
100
AcDbEntity
  8
1
  6
Continuous
 62
     7
100
AcDbLine
 10
-189.0
 20
20.0
 30
0.0
 11
-5.0
 21
20.0
 31
0.0
  0
LINE
  5
C8
330
1F
100
AcDbEntity
  8
0
  6
Continuous
 62
     7
100
AcDbLine
 10
-56.62450910284539
 20
193.0965957437748
 30
0.0
 11
-61.14753623804441
 21
193.0965957437748
 31
0.0
  0
LINE
  5
C9
330
1F
100
AcDbEntity
  8
0
  6
Continuous
 62
     7
100
AcDbLine
 10
-63.56586005806989
 20
192.8965957437746
 30
0.0
 11
-63.56586005806969
 21
177.0965957437748
 31
0.0
  0
LINE
  5
CA
330
1F
100
AcDbEntity
  8
0
  6
Continuous
 62
     7
100
AcDbLine
 10
-61.10618528282001
 20
192.8965957437746
 30
0.0
 11
-61.10618528282009
 21
177.0965957437748
 31
0.0
  0
LINE
  5
CB
330
1F
100
AcDbEntity
  8
0
  6
Continuous
 62
     7
100
AcDbLine
 10
-59.1915831337389
 20
157.0965957437748
 30
0.0
 11
-59.336022670445
 21
157.0965957437748
 31
0.0
  0
LINE
  5
CC
330
1F
100
AcDbEntity
  8
0
  6
Continuous
 62
     7
100
AcDbLine
 10
-58.83602267044489
 20
157.0965957437748
 30
0.0
 11
-58.83602267044489
 21
170.0965957437748
 31
0.0
  0
LINE
  5
CD
330
1F
100
AcDbEntity
  8
0
  6
Continuous
 62
     7
100
AcDbLine
 10
-58.83602267044489
 20
157.0965957437748
 30
0.0
 11
-59.1471176874619
 21
157.0965957437748
 31
0.0
  0
LINE
  5
CE
330
1F
100
AcDbEntity
  8
0
  6
Continuous
 62
     7
100
AcDbLine
 10
-59.1471176874619
 20
157.0965957437748
 30
0.0
 11
-59.1915831337389
 21
157.0965957437748
 31
0.0
  0
LINE
  5
CF
330
1F
100
AcDbEntity
  8
0
  6
Continuous
 62
     7
100
AcDbLine
 10
-58.63602267044499
 20
157.0965957437748
 30
0.0
 11
-58.83602267044489
 21
157.0965957437748
 31
0.0
  0
LINE
  5
D0
330
1F
100
AcDbEntity
  8
0
  6
Continuous
 62
     7
100
AcDbLine
 10
-57.63602267044499
 20
157.0965957437748
 30
0.0
 11
-58.63602267044499
 21
157.0965957437748
 31
0.0
  0
LINE
  5
D1
330
1F
100
AcDbEntity
  8
0
  6
Continuous
 62
     7
100
AcDbLine
 10
-62.4004714551611
 20
157.0965957437748
 30
0.0
 11
-62.33602267044489
 21
157.0965957437748
 31
0.0
  0
LINE
  5
D2
330
1F
100
AcDbEntity
  8
0
  6
Continuous
 62
     7
100
AcDbLine
 10
-61.14753623804441
 20
193.0965957437748
 30
0.0
 11
-63.5245091028454
 21
193.0965957437748
 31
0.0
  0
LINE
  5
D3
330
1F
100
AcDbEntity
  8
0
  6
Continuous
 62
     7
100
AcDbLine
 10
-80.08602267044489
 20
160.5965957437748
 30
0.0
 11
-80.08602267044489
 21
157.0965957437748
 31
0.0
  0
LINE
  5
D4
330
1F
100
AcDbEntity
  8
0
  6
Continuous
 62
     7
100
AcDbLine
 10
-67.83602267044489
 20
157.0965957437748
 30
0.0
 11
-67.77157388572869
 21
157.0965957437748
 31
0.0
  0
LINE
  5
D5
330
1F
100
AcDbEntity
  8
0
  6
Continuous
 62
     7
100
AcDbLine
 10
-62.9144836395275
 20
157.0965957437748
 30
0.0
 11
-62.4004714551611
 21
157.0965957437748
 31
0.0
  0
LINE
  5
D6
330
1F
100
AcDbEntity
  8
0
  6
Continuous
 62
     7
100
AcDbLine
 10
-63.98046220715099
 20
157.0965957437748
 30
0.0
 11
-62.9144836395275
 21
157.0965957437748
 31
0.0
  0
LINE
  5
D7
330
1F
100
AcDbEntity
  8
0
  6
Continuous
 62
     7
100
AcDbLine
 10
-64.53602267044491
 20
157.0965957437748
 30
0.0
 11
-64.02492765342791
 21
157.0965957437748
 31
0.0
  0
LINE
  5
D8
330
1F
100
AcDbEntity
  8
0
  6
Continuous
 62
     7
100
AcDbLine
 10
-64.02492765342791
 20
157.0965957437748
 30
0.0
 11
-63.98046220715099
 21
157.0965957437748
 31
0.0
  0
LINE
  5
D9
330
1F
100
AcDbEntity
  8
0
  6
Continuous
 62
     7
100
AcDbLine
 10
-67.25756170136239
 20
157.0965957437748
 30
0.0
 11
-66.1915831337389
 21
157.0965957437748
 31
0.0
  0
LINE
  5
DA
330
1F
100
AcDbEntity
  8
0
  6
Continuous
 62
     7
100
AcDbLine
 10
-65.63602267044499
 20
157.0965957437748
 30
0.0
 11
-64.53602267044491
 21
157.0965957437748
 31
0.0
  0
LINE
  5
DB
330
1F
100
AcDbEntity
  8
0
  6
Continuous
 62
     7
100
AcDbLine
 10
-66.1471176874619
 20
157.0965957437748
 30
0.0
 11
-65.63602267044499
 21
157.0965957437748
 31
0.0
  0
LINE
  5
DC
330
1F
100
AcDbEntity
  8
0
  6
Continuous
 62
     7
100
AcDbLine
 10
-66.1915831337389
 20
157.0965957437748
 30
0.0
 11
-66.1471176874619
 21
157.0965957437748
 31
0.0
  0
LINE
  5
DD
330
1F
100
AcDbEntity
  8
0
  6
Continuous
 62
     7
100
AcDbLine
 10
-67.77157388572869
 20
157.0965957437748
 30
0.0
 11
-67.25756170136239
 21
157.0965957437748
 31
0.0
  0
LINE
  5
DE
330
1F
100
AcDbEntity
  8
0
  6
Continuous
 62
     7
100
AcDbLine
 10
-79.08602267044489
 20
153.0965957437748
 30
0.0
 11
-79.23602267044498
 21
153.0965957437748
 31
0.0
  0
LINE
  5
DF
330
1F
100
AcDbEntity
  8
0
  6
Continuous
 62
     7
100
AcDbLine
 10
-79.23602267044498
 20
153.0965957437748
 30
0.0
 11
-79.28602267044491
 21
153.0965957437748
 31
0.0
  0
LINE
  5
E0
330
1F
100
AcDbEntity
  8
0
  6
Continuous
 62
     7
100
AcDbLine
 10
-78.98602267044498
 20
153.0965957437748
 30
0.0
 11
-79.08602267044489
 21
153.0965957437748
 31
0.0
  0
LINE
  5
E1
330
1F
100
AcDbEntity
  8
0
  6
Continuous
 62
     7
100
AcDbLine
 10
-78.98602267044498
 20
153.0965957437748
 30
0.0
 11
-77.08602267044489
 21
153.0965957437748
 31
0.0
  0
LINE
  5
E2
330
1F
100
AcDbEntity
  8
0
  6
Continuous
 62
     7
100
AcDbLine
 10
-72.53602267044491
 20
157.0965957437748
 30
0.0
 11
-71.53602267044491
 21
157.0965957437748
 31
0.0
  0
LINE
  5
E3
330
1F
100
AcDbEntity
  8
0
  6
Continuous
 62
     7
100
AcDbLine
 10
-73.04711768746199
 20
157.0965957437748
 30
0.0
 11
-72.53602267044491
 21
157.0965957437748
 31
0.0
  0
LINE
  5
E4
330
1F
100
AcDbEntity
  8
0
  6
Continuous
 62
     7
100
AcDbLine
 10
-71.33602267044489
 20
157.0965957437748
 30
0.0
 11
-71.02492765342791
 21
157.0965957437748
 31
0.0
  0
LINE
  5
E5
330
1F
100
AcDbEntity
  8
0
  6
Continuous
 62
     7
100
AcDbLine
 10
-70.98046220715099
 20
157.0965957437748
 30
0.0
 11
-70.83602267044489
 21
157.0965957437748
 31
0.0
  0
LINE
  5
E6
330
1F
100
AcDbEntity
  8
0
  6
Continuous
 62
     7
100
AcDbLine
 10
-71.02492765342791
 20
157.0965957437748
 30
0.0
 11
-70.98046220715099
 21
157.0965957437748
 31
0.0
  0
LINE
  5
E7
330
1F
100
AcDbEntity
  8
0
  6
Continuous
 62
     7
100
AcDbLine
 10
-71.53602267044491
 20
157.0965957437748
 30
0.0
 11
-71.33602267044489
 21
157.0965957437748
 31
0.0
  0
LINE
  5
E8
330
1F
100
AcDbEntity
  8
0
  6
Continuous
 62
     7
100
AcDbLine
 10
-82.08602267044489
 20
160.5965957437748
 30
0.0
 11
-80.08602267044489
 21
160.5965957437748
 31
0.0
  0
LINE
  5
E9
330
1F
100
AcDbEntity
  8
0
  6
Continuous
 62
     7
100
AcDbLine
 10
-80.08602267044489
 20
157.0965957437748
 30
0.0
 11
-82.08602267044489
 21
157.0965957437748
 31
0.0
  0
LINE
  5
EA
330
1F
100
AcDbEntity
  8
0
  6
Continuous
 62
     7
100
AcDbLine
 10
-80.08602267044489
 20
153.0965957437746
 30
0.0
 11
-79.28602267044491
 21
153.0965957437748
 31
0.0
  0
LINE
  5
EB
330
1F
100
AcDbEntity
  8
0
  6
Continuous
 62
     7
100
AcDbLine
 10
-82.08602267044489
 20
160.5965957437748
 30
0.0
 11
-82.08602267044489
 21
160.0965957437748
 31
0.0
  0
LINE
  5
EC
330
1F
100
AcDbEntity
  8
0
  6
Continuous
 62
     7
100
AcDbLine
 10
-82.08602267044489
 20
157.0965957437748
 30
0.0
 11
-82.08602267044489
 21
160.0965957437748
 31
0.0
  0
LINE
  5
ED
330
1F
100
AcDbEntity
  8
0
  6
Continuous
 62
     7
100
AcDbLine
 10
-50.08602267044489
 20
171.9465957437748
 30
0.0
 11
-50.08602267044489
 21
160.5965957437748
 31
0.0
  0
LINE
  5
EE
330
1F
100
AcDbEntity
  8
0
  6
Continuous
 62
     7
100
AcDbLine
 10
-50.08602267044489
 20
157.0965957437748
 30
0.0
 11
-50.08602267044489
 21
153.0965957437748
 31
0.0
  0
LINE
  5
EF
330
1F
100
AcDbEntity
  8
0
  6
Continuous
 62
     7
100
AcDbLine
 10
-48.08602267044489
 20
157.0965957437748
 30
0.0
 11
-50.08602267044489
 21
157.0965957437748
 31
0.0
  0
LINE
  5
F0
330
1F
100
AcDbEntity
  8
0
  6
Continuous
 62
     7
100
AcDbLine
 10
-50.08602267044489
 20
160.5965957437748
 30
0.0
 11
-48.08602267044489
 21
160.5965957437748
 31
0.0
  0
LINE
  5
F1
330
1F
100
AcDbEntity
  8
0
  6
Continuous
 62
     7
100
AcDbLine
 10
-50.88602267044499
 20
153.0965957437748
 30
0.0
 11
-50.08602267044489
 21
153.0965957437748
 31
0.0
  0
LINE
  5
F2
330
1F
100
AcDbEntity
  8
0
  6
Continuous
 62
     7
100
AcDbLine
 10
-51.08602267044489
 20
153.0965957437748
 30
0.0
 11
-51.186022670445
 21
153.0965957437748
 31
0.0
  0
LINE
  5
F3
330
1F
100
AcDbEntity
  8
0
  6
Continuous
 62
     7
100
AcDbLine
 10
-53.08602267044489
 20
153.0965957437748
 30
0.0
 11
-53.08602267044489
 21
157.0965957437748
 31
0.0
  0
LINE
  5
F4
330
1F
100
AcDbEntity
  8
0
  6
Continuous
 62
     7
100
AcDbLine
 10
-50.936022670445
 20
153.0965957437748
 30
0.0
 11
-51.08602267044489
 21
153.0965957437748
 31
0.0
  0
LINE
  5
F5
330
1F
100
AcDbEntity
  8
0
  6
Continuous
 62
     7
100
AcDbLine
 10
-50.88602267044499
 20
153.0965957437748
 30
0.0
 11
-50.936022670445
 21
153.0965957437748
 31
0.0
  0
LINE
  5
F6
330
1F
100
AcDbEntity
  8
0
  6
Continuous
 62
     7
100
AcDbLine
 10
-50.08602267044489
 20
171.9465957437748
 30
0.0
 11
-52.08602267044489
 21
171.9465957437748
 31
0.0
  0
LINE
  5
F7
330
1F
100
AcDbEntity
  8
0
  6
Continuous
 62
     7
100
AcDbLine
 10
-52.08602267044489
 20
174.5965957437748
 30
0.0
 11
-50.08602267044489
 21
174.5965957437748
 31
0.0
  0
LINE
  5
F8
330
1F
100
AcDbEntity
  8
0
  6
Continuous
 62
     7
100
AcDbLine
 10
-50.08602267044489
 20
171.9465957437748
 30
0.0
 11
-50.08602267044489
 21
174.5965957437748
 31
0.0
  0
LINE
  5
F9
330
1F
100
AcDbEntity
  8
0
  6
Continuous
 62
     7
100
AcDbLine
 10
-50.08602267044489
 20
174.5965957437748
 30
0.0
 11
-50.08602267044489
 21
177.0965957437748
 31
0.0
  0
LINE
  5
FA
330
1F
100
AcDbEntity
  8
0
  6
Continuous
 62
     7
100
AcDbLine
 10
-51.71102267044489
 20
177.0965957437748
 30
0.0
 11
-50.936022670445
 21
177.0965957437748
 31
0.0
  0
LINE
  5
FB
330
1F
100
AcDbEntity
  8
0
  6
Continuous
 62
     7
100
AcDbLine
 10
-53.71102267044489
 20
177.0965957437748
 30
0.0
 11
-51.71102267044489
 21
177.0965957437748
 31
0.0
  0
LINE
  5
FC
330
1F
100
AcDbEntity
  8
0
  6
Continuous
 62
     7
100
AcDbLine
 10
-50.936022670445
 20
177.0965957437748
 30
0.0
 11
-50.08602267044489
 21
177.0965957437748
 31
0.0
  0
LINE
  5
FD
330
1F
100
AcDbEntity
  8
0
  6
Continuous
 62
     7
100
AcDbLine
 10
-53.08602267044489
 20
153.0965957437748
 30
0.0
 11
-51.186022670445
 21
153.0965957437748
 31
0.0
  0
LINE
  5
FE
330
1F
100
AcDbEntity
  8
0
  6
Continuous
 62
     7
100
AcDbLine
 10
-70.88602267044499
 20
177.0965957437748
 30
0.0
 11
-70.88602267044499
 21
192.8965957437746
 31
0.0
  0
LINE
  5
FF
330
1F
100
AcDbEntity
  8
0
  6
Continuous
 62
     7
100
AcDbLine
 10
-71.686022670445
 20
177.0965957437748
 30
0.0
 11
-71.686022670445
 21
192.8965957437746
 31
0.0
  0
LINE
  5
100
330
1F
100
AcDbEntity
  8
0
  6
Continuous
 62
     7
100
AcDbLine
 10
-75.96586005806981
 20
192.8965957437746
 30
0.0
 11
-75.96586005806981
 21
177.0965957437748
 31
0.0
  0
LINE
  5
101
330
1F
100
AcDbEntity
  8
0
  6
Continuous
 62
     7
100
AcDbLine
 10
-73.50618528281998
 20
192.8965957437746
 30
0.0
 11
-73.50618528281998
 21
177.0965957437748
 31
0.0
  0
LINE
  5
102
330
1F
100
AcDbEntity
  8
0
  6
Continuous
 62
     7
100
AcDbLine
 10
-76.46102267044489
 20
177.0965957437748
 30
0.0
 11
-76.46102267044489
 21
192.8965957437746
 31
0.0
  0
LINE
  5
103
330
1F
100
AcDbEntity
  8
0
  6
Continuous
 62
     7
100
AcDbLine
 10
-79.2360226704449
 20
177.0965957437748
 30
0.0
 11
-79.2360226704449
 21
192.8965957437746
 31
0.0
  0
LINE
  5
104
330
1F
100
AcDbEntity
  8
0
  6
Continuous
 62
     7
100
AcDbLine
 10
-79.2360226704449
 20
177.0965957437748
 30
0.0
 11
-78.46102267044489
 21
177.0965957437748
 31
0.0
  0
LINE
  5
105
330
1F
100
AcDbEntity
  8
0
  6
Continuous
 62
     7
100
AcDbLine
 10
-80.08602267044489
 20
177.0965957437748
 30
0.0
 11
-79.2360226704449
 21
177.0965957437748
 31
0.0
  0
LINE
  5
106
330
1F
100
AcDbEntity
  8
0
  6
Continuous
 62
     7
100
AcDbLine
 10
-80.08602267044489
 20
174.5965957437748
 30
0.0
 11
-78.08602267044489
 21
174.5965957437748
 31
0.0
  0
LINE
  5
107
330
1F
100
AcDbEntity
  8
0
  6
Continuous
 62
     7
100
AcDbLine
 10
-80.08602267044489
 20
171.9465957437748
 30
0.0
 11
-78.08602267044489
 21
171.9465957437748
 31
0.0
  0
LINE
  5
108
330
1F
100
AcDbEntity
  8
0
  6
Continuous
 62
     7
100
AcDbLine
 10
-80.08602267044489
 20
174.5965957437748
 30
0.0
 11
-80.08602267044489
 21
177.0965957437748
 31
0.0
  0
LINE
  5
109
330
1F
100
AcDbEntity
  8
0
  6
Continuous
 62
     7
100
AcDbLine
 10
-80.08602267044489
 20
171.9465957437748
 30
0.0
 11
-80.08602267044489
 21
174.5965957437748
 31
0.0
  0
LINE
  5
10A
330
1F
100
AcDbEntity
  8
0
  6
Continuous
 62
     7
100
AcDbLine
 10
-78.46102267044489
 20
177.0965957437748
 30
0.0
 11
-78.46102267044489
 21
192.8965957437746
 31
0.0
  0
LINE
  5
10B
330
1F
100
AcDbEntity
  8
0
  6
Continuous
 62
     7
100
AcDbLine
 10
-70.703011879368
 20
193.0965957437748
 30
0.0
 11
-71.86903346152181
 21
193.0965957437748
 31
0.0
  0
LINE
  5
10C
330
1F
100
AcDbEntity
  8
0
  6
Continuous
 62
     7
100
AcDbLine
 10
-72.06903346152188
 20
193.0965957437748
 30
0.0
 11
-73.5475362380445
 21
193.0965957437748
 31
0.0
  0
LINE
  5
10D
330
1F
100
AcDbEntity
  8
0
  6
Continuous
 62
     7
100
AcDbLine
 10
-71.86903346152181
 20
193.0965957437748
 30
0.0
 11
-72.06903346152188
 21
193.0965957437748
 31
0.0
  0
LINE
  5
10E
330
1F
100
AcDbEntity
  8
0
  6
Continuous
 62
     7
100
AcDbLine
 10
-73.5475362380445
 20
193.0965957437748
 30
0.0
 11
-75.9245091028454
 21
193.0965957437748
 31
0.0
  0
LINE
  5
10F
330
1F
100
AcDbEntity
  8
0
  6
Continuous
 62
     7
100
AcDbLine
 10
-78.26102267044499
 20
193.0965957437748
 30
0.0
 11
-76.46102267044489
 21
193.0965957437748
 31
0.0
  0
LINE
  5
110
330
1F
100
AcDbEntity
  8
0
  6
Continuous
 62
     7
100
AcDbLine
 10
-75.9245091028454
 20
193.0965957437748
 30
0.0
 11
-76.46102267044489
 21
193.0965957437748
 31
0.0
  0
LINE
  5
111
330
1F
100
AcDbEntity
  8
0
  6
Continuous
 62
     7
100
AcDbLine
 10
-76.46102267044489
 20
192.8965957437746
 30
0.0
 11
-76.46102267044489
 21
193.0965957437748
 31
0.0
  0
LINE
  5
112
330
1F
100
AcDbEntity
  8
0
  6
Continuous
 62
     7
100
AcDbLine
 10
-79.03602267044491
 20
193.0965957437748
 30
0.0
 11
-78.7647726704449
 21
193.0965957437748
 31
0.0
  0
LINE
  5
113
330
1F
100
AcDbEntity
  8
0
  6
Continuous
 62
     7
100
AcDbLine
 10
-78.26102267044499
 20
193.0965957437748
 30
0.0
 11
-78.7647726704449
 21
193.0965957437748
 31
0.0
  0
LINE
  5
114
330
1F
100
AcDbEntity
  8
0
  6
Continuous
 62
     7
100
AcDbLine
 10
-80.08602267044489
 20
157.0965957437748
 30
0.0
 11
-80.08602267044489
 21
153.0965957437746
 31
0.0
  0
LINE
  5
115
330
1F
100
AcDbEntity
  8
0
  6
Continuous
 62
     7
100
AcDbLine
 10
-57.12492765342779
 20
157.0965957437748
 30
0.0
 11
-57.63602267044499
 21
157.0965957437748
 31
0.0
  0
LINE
  5
116
330
1F
100
AcDbEntity
  8
0
  6
Continuous
 62
     7
100
AcDbLine
 10
-77.08602267044489
 20
157.0965957437748
 30
0.0
 11
-77.08602267044489
 21
153.0965957437748
 31
0.0
  0
LINE
  5
117
330
1F
100
AcDbEntity
  8
0
  6
Continuous
 62
     7
100
AcDbLine
 10
-52.08602267044489
 20
171.9465957437748
 30
0.0
 11
-52.08602267044489
 21
174.5965957437748
 31
0.0
  0
LINE
  5
118
330
1F
100
AcDbEntity
  8
0
  6
Continuous
 62
     7
100
AcDbLine
 10
-53.71102267044489
 20
177.0965957437748
 30
0.0
 11
-53.71102267044489
 21
192.8965957437746
 31
0.0
  0
LINE
  5
119
330
1F
100
AcDbEntity
  8
0
  6
Continuous
 62
     7
100
AcDbLine
 10
-51.71102267044489
 20
177.0965957437748
 30
0.0
 11
-51.71102267044489
 21
192.8965957437746
 31
0.0
  0
LINE
  5
11A
330
1F
100
AcDbEntity
  8
0
  6
Continuous
 62
     7
100
AcDbLine
 10
-50.936022670445
 20
177.0965957437748
 30
0.0
 11
-50.936022670445
 21
192.8965957437746
 31
0.0
  0
LINE
  5
11B
330
1F
100
AcDbEntity
  8
0
  6
Continuous
 62
     7
100
AcDbLine
 10
-56.66586005806988
 20
177.0965957437748
 30
0.0
 11
-53.71102267044489
 21
177.0965957437748
 31
0.0
  0
LINE
  5
11C
330
1F
100
AcDbEntity
  8
0
  6
Continuous
 62
     7
100
AcDbLine
 10
-53.71102267044489
 20
193.0965957437748
 30
0.0
 11
-53.71102267044489
 21
192.8965957437746
 31
0.0
  0
LINE
  5
11D
330
1F
100
AcDbEntity
  8
0
  6
Continuous
 62
     7
100
AcDbLine
 10
-53.71102267044489
 20
193.0965957437748
 30
0.0
 11
-51.91102267044491
 21
193.0965957437748
 31
0.0
  0
LINE
  5
11E
330
1F
100
AcDbEntity
  8
0
  6
Continuous
 62
     7
100
AcDbLine
 10
-51.407272670445
 20
193.0965957437748
 30
0.0
 11
-51.91102267044491
 21
193.0965957437748
 31
0.0
  0
LINE
  5
11F
330
1F
100
AcDbEntity
  8
0
  6
Continuous
 62
     7
100
AcDbLine
 10
-51.407272670445
 20
193.0965957437748
 30
0.0
 11
-51.13602267044499
 21
193.0965957437748
 31
0.0
  0
LINE
  5
120
330
1F
100
AcDbEntity
  8
0
  6
Continuous
 62
     7
100
AcDbLine
 10
-53.71102267044489
 20
193.0965957437748
 30
0.0
 11
-54.24753623804449
 21
193.0965957437748
 31
0.0
  0
LINE
  5
121
330
1F
100
AcDbEntity
  8
0
  6
Continuous
 62
     7
100
AcDbLine
 10
-56.66586005806988
 20
192.8965957437746
 30
0.0
 11
-56.66586005806988
 21
177.0965957437748
 31
0.0
  0
LINE
  5
122
330
1F
100
AcDbEntity
  8
0
  6
Continuous
 62
     7
100
AcDbLine
 10
-54.24753623804449
 20
193.0965957437748
 30
0.0
 11
-56.62450910284539
 21
193.0965957437748
 31
0.0
  0
LINE
  5
123
330
1F
100
AcDbEntity
  8
0
  6
Continuous
 62
     7
100
AcDbLine
 10
-71.33602267044489
 20
170.0965957437748
 30
0.0
 11
-58.83602267044489
 21
170.0965957437748
 31
0.0
  0
LINE
  5
124
330
1F
100
AcDbEntity
  8
0
  6
Continuous
 62
     7
100
AcDbLine
 10
-70.88602267044499
 20
177.0965957437748
 30
0.0
 11
-69.06586005806969
 21
177.0965957437748
 31
0.0
  0
LINE
  5
125
330
1F
100
AcDbEntity
  8
0
  6
Continuous
 62
     7
100
AcDbLine
 10
-78.46102267044489
 20
177.0965957437748
 30
0.0
 11
-76.46102267044489
 21
177.0965957437748
 31
0.0
  0
LINE
  5
126
330
1F
100
AcDbEntity
  8
0
  6
Continuous
 62
     7
100
AcDbLine
 10
-76.46102267044489
 20
177.0965957437748
 30
0.0
 11
-75.96586005806981
 21
177.0965957437748
 31
0.0
  0
LINE
  5
127
330
1F
100
AcDbEntity
  8
0
  6
Continuous
 62
     7
100
AcDbLine
 10
-75.96586005806981
 20
177.0965957437748
 30
0.0
 11
-73.50618528281998
 21
177.0965957437748
 31
0.0
  0
LINE
  5
128
330
1F
100
AcDbEntity
  8
0
  6
Continuous
 62
     7
100
AcDbLine
 10
-73.50618528281998
 20
177.0965957437748
 30
0.0
 11
-71.686022670445
 21
177.0965957437748
 31
0.0
  0
LINE
  5
129
330
1F
100
AcDbEntity
  8
0
  6
Continuous
 62
     7
100
AcDbLine
 10
-61.10618528282009
 20
177.0965957437748
 30
0.0
 11
-56.66586005806988
 21
177.0965957437748
 31
0.0
  0
LINE
  5
12A
330
1F
100
AcDbEntity
  8
0
  6
Continuous
 62
     7
100
AcDbLine
 10
-63.56586005806969
 20
177.0965957437748
 30
0.0
 11
-61.10618528282009
 21
177.0965957437748
 31
0.0
  0
LINE
  5
12B
330
1F
100
AcDbEntity
  8
0
  6
Continuous
 62
     7
100
AcDbLine
 10
-66.60618528282009
 20
177.0965957437748
 30
0.0
 11
-63.56586005806969
 21
177.0965957437748
 31
0.0
  0
LINE
  5
12C
330
1F
100
AcDbEntity
  8
0
  6
Continuous
 62
     7
100
AcDbLine
 10
-69.06586005806969
 20
177.0965957437748
 30
0.0
 11
-66.60618528282009
 21
177.0965957437748
 31
0.0
  0
LINE
  5
12D
330
1F
100
AcDbEntity
  8
0
  6
Continuous
 62
     7
100
AcDbLine
 10
-71.686022670445
 20
177.0965957437748
 30
0.0
 11
-70.88602267044499
 21
177.0965957437748
 31
0.0
  0
LINE
  5
12E
330
1F
100
AcDbEntity
  8
0
  6
Continuous
 62
     7
100
AcDbLine
 10
-78.08602267044489
 20
171.9465957437748
 30
0.0
 11
-78.08602267044489
 21
174.5965957437748
 31
0.0
  0
LINE
  5
12F
330
1F
100
AcDbEntity
  8
0
  6
Continuous
 62
     7
100
AcDbLine
 10
-71.33602267044489
 20
170.0965957437748
 30
0.0
 11
-71.33602267044489
 21
157.0965957437748
 31
0.0
  0
LINE
  5
130
330
1F
100
AcDbEntity
  8
0
  6
Continuous
 62
     7
100
AcDbLine
 10
-80.08602267044489
 20
171.9465957437748
 30
0.0
 11
-80.08602267044489
 21
160.5965957437748
 31
0.0
  0
LINE
  5
131
330
1F
100
AcDbEntity
  8
0
  6
Continuous
 62
     7
100
AcDbLine
 10
-69.06586005806989
 20
192.8965957437746
 30
0.0
 11
-69.06586005806969
 21
177.0965957437748
 31
0.0
  0
LINE
  5
132
330
1F
100
AcDbEntity
  8
0
  6
Continuous
 62
     7
100
AcDbLine
 10
-67.58602267044489
 20
161.0965957437748
 30
0.0
 11
-62.58602267044489
 21
161.0965957437748
 31
0.0
  0
LINE
  5
133
330
1F
100
AcDbEntity
  8
0
  6
Continuous
 62
     7
100
AcDbLine
 10
-66.60618528282001
 20
192.8965957437746
 30
0.0
 11
-66.60618528282009
 21
177.0965957437748
 31
0.0
  0
LINE
  5
134
330
1F
100
AcDbEntity
  8
0
  6
Continuous
 62
     7
100
AcDbLine
 10
-63.5245091028454
 20
193.0965957437748
 30
0.0
 11
-66.64753623804441
 21
193.0965957437748
 31
0.0
  0
LINE
  5
135
330
1F
100
AcDbEntity
  8
0
  6
Continuous
 62
     7
100
AcDbLine
 10
-66.64753623804441
 20
193.0965957437748
 30
0.0
 11
-69.0245091028454
 21
193.0965957437748
 31
0.0
  0
LINE
  5
136
330
1F
100
AcDbEntity
  8
0
  6
Continuous
 62
     7
100
AcDbLine
 10
-69.0245091028454
 20
193.0965957437748
 30
0.0
 11
-70.5030118793681
 21
193.0965957437748
 31
0.0
  0
LINE
  5
137
330
1F
100
AcDbEntity
  8
0
  6
Continuous
 62
     7
100
AcDbLine
 10
-70.5030118793681
 20
193.0965957437748
 30
0.0
 11
-70.703011879368
 21
193.0965957437748
 31
0.0
  0
LINE
  5
138
330
1F
100
AcDbEntity
  8
0
  6
Continuous
 62
     7
100
AcDbLine
 10
-70.83602267044489
 20
169.2465957437747
 30
0.0
 11
-59.33602267044489
 21
169.2465957437747
 31
0.0
  0
LINE
  5
139
330
1F
100
AcDbEntity
  8
0
  6
Continuous
 62
     7
100
AcDbLine
 10
-70.83602267044489
 20
169.2465957437747
 30
0.0
 11
-70.83602267044489
 21
157.0965957437748
 31
0.0
  0
LINE
  5
13A
330
1F
100
AcDbEntity
  8
0
  6
Continuous
 62
     7
100
AcDbLine
 10
-67.83602267044489
 20
157.0965957437748
 30
0.0
 11
-67.83602267044489
 21
166.2465957437747
 31
0.0
  0
LINE
  5
13B
330
1F
100
AcDbEntity
  8
0
  6
Continuous
 62
     7
100
AcDbLine
 10
-67.83602267044489
 20
153.0965957437748
 30
0.0
 11
-62.33602267044489
 21
153.0965957437748
 31
0.0
  0
LINE
  5
13C
330
1F
100
AcDbEntity
  8
0
  6
Continuous
 62
     7
100
AcDbLine
 10
-77.08602267044489
 20
153.0965957437748
 30
0.0
 11
-73.08602267044489
 21
153.0965957437748
 31
0.0
  0
LINE
  5
13D
330
1F
100
AcDbEntity
  8
0
  6
Continuous
 62
     7
100
AcDbLine
 10
-59.336022670445
 20
157.0965957437748
 30
0.0
 11
-59.33602267044489
 21
169.2465957437747
 31
0.0
  0
LINE
  5
13E
330
1F
100
AcDbEntity
  8
0
  6
Continuous
 62
     7
100
AcDbLine
 10
-67.83602267044489
 20
166.2465957437747
 30
0.0
 11
-62.33602267044489
 21
166.2465957437747
 31
0.0
  0
LINE
  5
13F
330
1F
100
AcDbEntity
  8
0
  6
Continuous
 62
     7
100
AcDbLine
 10
-57.08602267044489
 20
153.0965957437748
 30
0.0
 11
-57.08602267044489
 21
157.0965957437748
 31
0.0
  0
LINE
  5
140
330
1F
100
AcDbEntity
  8
0
  6
Continuous
 62
     7
100
AcDbLine
 10
-67.83602267044489
 20
153.0965957437748
 30
0.0
 11
-67.83602267044489
 21
157.0965957437748
 31
0.0
  0
LINE
  5
141
330
1F
100
AcDbEntity
  8
0
  6
Continuous
 62
     7
100
AcDbLine
 10
-57.12492765342779
 20
157.0965957437748
 30
0.0
 11
-57.63602267044499
 21
157.0965957437748
 31
0.0
  0
LINE
  5
142
330
1F
100
AcDbEntity
  8
0
  6
Continuous
 62
     7
100
AcDbLine
 10
-57.08602267044489
 20
153.0965957437748
 30
0.0
 11
-62.33602267044489
 21
153.0965957437748
 31
0.0
  0
LINE
  5
143
330
1F
100
AcDbEntity
  8
0
  6
Continuous
 62
     7
100
AcDbLine
 10
-57.08602267044489
 20
153.0965957437748
 30
0.0
 11
-53.08602267044489
 21
153.0965957437748
 31
0.0
  0
LINE
  5
144
330
1F
100
AcDbEntity
  8
0
  6
Continuous
 62
     7
100
AcDbLine
 10
-53.08602267044489
 20
153.0965957437748
 30
0.0
 11
-51.186022670445
 21
153.0965957437748
 31
0.0
  0
LINE
  5
145
330
1F
100
AcDbEntity
  8
0
  6
Continuous
 62
     7
100
AcDbLine
 10
-50.88602267044499
 20
153.0965957437748
 30
0.0
 11
-50.936022670445
 21
153.0965957437748
 31
0.0
  0
LINE
  5
146
330
1F
100
AcDbEntity
  8
0
  6
Continuous
 62
     7
100
AcDbLine
 10
-50.936022670445
 20
153.0965957437748
 30
0.0
 11
-51.08602267044489
 21
153.0965957437748
 31
0.0
  0
LINE
  5
147
330
1F
100
AcDbEntity
  8
0
  6
Continuous
 62
     7
100
AcDbLine
 10
-51.08602267044489
 20
153.0965957437748
 30
0.0
 11
-51.186022670445
 21
153.0965957437748
 31
0.0
  0
LINE
  5
148
330
1F
100
AcDbEntity
  8
0
  6
Continuous
 62
     7
100
AcDbLine
 10
-71.53602267044491
 20
157.0965957437748
 30
0.0
 11
-71.33602267044489
 21
157.0965957437748
 31
0.0
  0
LINE
  5
149
330
1F
100
AcDbEntity
  8
0
  6
Continuous
 62
     7
100
AcDbLine
 10
-71.02492765342791
 20
157.0965957437748
 30
0.0
 11
-70.98046220715099
 21
157.0965957437748
 31
0.0
  0
LINE
  5
14A
330
1F
100
AcDbEntity
  8
0
  6
Continuous
 62
     7
100
AcDbLine
 10
-70.98046220715099
 20
157.0965957437748
 30
0.0
 11
-70.83602267044489
 21
157.0965957437748
 31
0.0
  0
LINE
  5
14B
330
1F
100
AcDbEntity
  8
0
  6
Continuous
 62
     7
100
AcDbLine
 10
-71.33602267044489
 20
157.0965957437748
 30
0.0
 11
-71.02492765342791
 21
157.0965957437748
 31
0.0
  0
LINE
  5
14C
330
1F
100
AcDbEntity
  8
0
  6
Continuous
 62
     7
100
AcDbLine
 10
-73.04711768746199
 20
157.0965957437748
 30
0.0
 11
-72.53602267044491
 21
157.0965957437748
 31
0.0
  0
LINE
  5
14D
330
1F
100
AcDbEntity
  8
0
  6
Continuous
 62
     7
100
AcDbLine
 10
-72.53602267044491
 20
157.0965957437748
 30
0.0
 11
-71.53602267044491
 21
157.0965957437748
 31
0.0
  0
LINE
  5
14E
330
1F
100
AcDbEntity
  8
0
  6
Continuous
 62
     7
100
AcDbLine
 10
-78.98602267044498
 20
153.0965957437748
 30
0.0
 11
-77.08602267044489
 21
153.0965957437748
 31
0.0
  0
LINE
  5
14F
330
1F
100
AcDbEntity
  8
0
  6
Continuous
 62
     7
100
AcDbLine
 10
-78.98602267044498
 20
153.0965957437748
 30
0.0
 11
-79.08602267044489
 21
153.0965957437748
 31
0.0
  0
LINE
  5
150
330
1F
100
AcDbEntity
  8
0
  6
Continuous
 62
     7
100
AcDbLine
 10
-79.23602267044498
 20
153.0965957437748
 30
0.0
 11
-79.28602267044491
 21
153.0965957437748
 31
0.0
  0
LINE
  5
151
330
1F
100
AcDbEntity
  8
0
  6
Continuous
 62
     7
100
AcDbLine
 10
-79.08602267044489
 20
153.0965957437748
 30
0.0
 11
-79.23602267044498
 21
153.0965957437748
 31
0.0
  0
LINE
  5
152
330
1F
100
AcDbEntity
  8
0
  6
Continuous
 62
     7
100
AcDbLine
 10
-73.08602267044489
 20
153.0965957437748
 30
0.0
 11
-67.83602267044489
 21
153.0965957437748
 31
0.0
  0
LINE
  5
153
330
1F
100
AcDbEntity
  8
0
  6
Continuous
 62
     7
100
AcDbLine
 10
-67.77157388572869
 20
157.0965957437748
 30
0.0
 11
-67.25756170136239
 21
157.0965957437748
 31
0.0
  0
LINE
  5
154
330
1F
100
AcDbEntity
  8
0
  6
Continuous
 62
     7
100
AcDbLine
 10
-66.1915831337389
 20
157.0965957437748
 30
0.0
 11
-66.1471176874619
 21
157.0965957437748
 31
0.0
  0
LINE
  5
155
330
1F
100
AcDbEntity
  8
0
  6
Continuous
 62
     7
100
AcDbLine
 10
-66.1471176874619
 20
157.0965957437748
 30
0.0
 11
-65.63602267044499
 21
157.0965957437748
 31
0.0
  0
LINE
  5
156
330
1F
100
AcDbEntity
  8
0
  6
Continuous
 62
     7
100
AcDbLine
 10
-65.63602267044499
 20
157.0965957437748
 30
0.0
 11
-64.53602267044491
 21
157.0965957437748
 31
0.0
  0
LINE
  5
157
330
1F
100
AcDbEntity
  8
0
  6
Continuous
 62
     7
100
AcDbLine
 10
-67.25756170136239
 20
157.0965957437748
 30
0.0
 11
-66.1915831337389
 21
157.0965957437748
 31
0.0
  0
LINE
  5
158
330
1F
100
AcDbEntity
  8
0
  6
Continuous
 62
     7
100
AcDbLine
 10
-64.02492765342791
 20
157.0965957437748
 30
0.0
 11
-63.98046220715099
 21
157.0965957437748
 31
0.0
  0
LINE
  5
159
330
1F
100
AcDbEntity
  8
0
  6
Continuous
 62
     7
100
AcDbLine
 10
-64.53602267044491
 20
157.0965957437748
 30
0.0
 11
-64.02492765342791
 21
157.0965957437748
 31
0.0
  0
LINE
  5
15A
330
1F
100
AcDbEntity
  8
0
  6
Continuous
 62
     7
100
AcDbLine
 10
-63.98046220715099
 20
157.0965957437748
 30
0.0
 11
-62.9144836395275
 21
157.0965957437748
 31
0.0
  0
LINE
  5
15B
330
1F
100
AcDbEntity
  8
0
  6
Continuous
 62
     7
100
AcDbLine
 10
-62.9144836395275
 20
157.0965957437748
 30
0.0
 11
-62.4004714551611
 21
157.0965957437748
 31
0.0
  0
LINE
  5
15C
330
1F
100
AcDbEntity
  8
0
  6
Continuous
 62
     7
100
AcDbLine
 10
-67.83602267044489
 20
157.0965957437748
 30
0.0
 11
-67.77157388572869
 21
157.0965957437748
 31
0.0
  0
LINE
  5
15D
330
1F
100
AcDbEntity
  8
0
  6
Continuous
 62
     7
100
AcDbLine
 10
-73.08602267044489
 20
153.0965957437748
 30
0.0
 11
-73.08602267044489
 21
157.0965957437748
 31
0.0
  0
LINE
  5
15E
330
1F
100
AcDbEntity
  8
0
  6
Continuous
 62
     7
100
AcDbLine
 10
-62.4004714551611
 20
157.0965957437748
 30
0.0
 11
-62.33602267044489
 21
157.0965957437748
 31
0.0
  0
LINE
  5
15F
330
1F
100
AcDbEntity
  8
0
  6
Continuous
 62
     7
100
AcDbLine
 10
-62.33602267044489
 20
157.0965957437748
 30
0.0
 11
-62.33602267044489
 21
153.0965957437748
 31
0.0
  0
LINE
  5
160
330
1F
100
AcDbEntity
  8
0
  6
Continuous
 62
     7
100
AcDbLine
 10
-62.33602267044489
 20
166.2465957437747
 30
0.0
 11
-62.33602267044489
 21
157.0965957437748
 31
0.0
  0
LINE
  5
161
330
1F
100
AcDbEntity
  8
0
  6
Continuous
 62
     7
100
AcDbLine
 10
-57.63602267044499
 20
157.0965957437748
 30
0.0
 11
-58.63602267044499
 21
157.0965957437748
 31
0.0
  0
LINE
  5
162
330
1F
100
AcDbEntity
  8
0
  6
Continuous
 62
     7
100
AcDbLine
 10
-58.63602267044499
 20
157.0965957437748
 30
0.0
 11
-58.83602267044489
 21
157.0965957437748
 31
0.0
  0
LINE
  5
163
330
1F
100
AcDbEntity
  8
0
  6
Continuous
 62
     7
100
AcDbLine
 10
-59.1471176874619
 20
157.0965957437748
 30
0.0
 11
-59.1915831337389
 21
157.0965957437748
 31
0.0
  0
LINE
  5
164
330
1F
100
AcDbEntity
  8
0
  6
Continuous
 62
     7
100
AcDbLine
 10
-58.83602267044489
 20
157.0965957437748
 30
0.0
 11
-59.1471176874619
 21
157.0965957437748
 31
0.0
  0
LINE
  5
165
330
1F
100
AcDbEntity
  8
0
  6
Continuous
 62
     7
100
AcDbLine
 10
-59.1915831337389
 20
157.0965957437748
 30
0.0
 11
-59.336022670445
 21
157.0965957437748
 31
0.0
  0
LINE
  5
166
330
1F
100
AcDbEntity
  8
0
  6
Continuous
 62
     7
100
AcDbLine
 10
-136.809945026655
 20
157.0965957437748
 30
0.0
 11
-136.809945026655
 21
154.4965957437747
 31
0.0
  0
LINE
  5
167
330
1F
100
AcDbEntity
  8
0
  6
Continuous
 62
     7
100
AcDbLine
 10
-138.4697280266551
 20
157.0965957437748
 30
0.0
 11
-146.6697280266551
 21
157.0965957437748
 31
0.0
  0
LINE
  5
168
330
1F
100
AcDbEntity
  8
0
  6
Continuous
 62
     7
100
AcDbLine
 10
-149.909945026655
 20
157.0965957437748
 30
0.0
 11
-149.909945026655
 21
153.0965957437748
 31
0.0
  0
LINE
  5
169
330
1F
100
AcDbEntity
  8
0
  6
Continuous
 62
     7
100
AcDbLine
 10
-149.909945026655
 20
171.9465957437748
 30
0.0
 11
-149.909945026655
 21
157.0965957437748
 31
0.0
  0
LINE
  5
16A
330
1F
100
AcDbEntity
  8
0
  6
Continuous
 62
     7
100
AcDbLine
 10
-149.909945026655
 20
171.9465957437748
 30
0.0
 11
-147.909945026655
 21
171.9465957437748
 31
0.0
  0
LINE
  5
16B
330
1F
100
AcDbEntity
  8
0
  6
Continuous
 62
     7
100
AcDbLine
 10
-137.0749231926633
 20
193.0965957437748
 30
0.0
 11
-139.2218118389081
 21
193.0965957437748
 31
0.0
  0
LINE
  5
16C
330
1F
100
AcDbEntity
  8
0
  6
Continuous
 62
     7
100
AcDbLine
 10
-141.7980782144019
 20
193.0965957437748
 30
0.0
 11
-139.2218118389081
 21
193.0965957437748
 31
0.0
  0
LINE
  5
16D
330
1F
100
AcDbEntity
  8
0
  6
Continuous
 62
     7
100
AcDbLine
 10
-141.7980782144019
 20
193.0965957437748
 30
0.0
 11
-143.9449668606467
 21
193.0965957437748
 31
0.0
  0
LINE
  5
16E
330
1F
100
AcDbEntity
  8
0
  6
Continuous
 62
     7
100
AcDbLine
 10
-143.9449668606467
 20
177.0965957437748
 30
0.0
 11
-137.0749231926633
 21
177.0965957437748
 31
0.0
  0
LINE
  5
16F
330
1F
100
AcDbEntity
  8
0
  6
Continuous
 62
     7
100
AcDbLine
 10
-148.759945026655
 20
193.0965957437748
 30
0.0
 11
-146.709945026655
 21
193.0965957437748
 31
0.0
  0
LINE
  5
170
330
1F
100
AcDbEntity
  8
0
  6
Continuous
 62
     7
100
AcDbLine
 10
-147.909945026655
 20
171.9465957437748
 30
0.0
 11
-147.909945026655
 21
174.5965957437748
 31
0.0
  0
LINE
  5
171
330
1F
100
AcDbEntity
  8
0
  6
Continuous
 62
     7
100
AcDbLine
 10
-149.909945026655
 20
171.9465957437748
 30
0.0
 11
-149.909945026655
 21
174.5965957437748
 31
0.0
  0
LINE
  5
172
330
1F
100
AcDbEntity
  8
0
  6
Continuous
 62
     7
100
AcDbLine
 10
-149.909945026655
 20
177.0965957437748
 30
0.0
 11
-148.959945026655
 21
177.0965957437748
 31
0.0
  0
LINE
  5
173
330
1F
100
AcDbEntity
  8
0
  6
Continuous
 62
     7
100
AcDbLine
 10
-149.909945026655
 20
174.5965957437748
 30
0.0
 11
-147.909945026655
 21
174.5965957437748
 31
0.0
  0
LINE
  5
174
330
1F
100
AcDbEntity
  8
0
  6
Continuous
 62
     7
100
AcDbLine
 10
-149.909945026655
 20
177.0965957437748
 30
0.0
 11
-149.909945026655
 21
174.5965957437748
 31
0.0
  0
LINE
  5
175
330
1F
100
AcDbEntity
  8
0
  6
Continuous
 62
     7
100
AcDbLine
 10
-148.959945026655
 20
177.0965957437748
 30
0.0
 11
-146.709945026655
 21
177.0965957437748
 31
0.0
  0
LINE
  5
176
330
1F
100
AcDbEntity
  8
0
  6
Continuous
 62
     7
100
AcDbLine
 10
-146.709945026655
 20
177.0965957437748
 30
0.0
 11
-143.9449668606467
 21
177.0965957437748
 31
0.0
  0
LINE
  5
177
330
1F
100
AcDbEntity
  8
0
  6
Continuous
 62
     7
100
AcDbLine
 10
-143.9449668606467
 20
193.0965957437748
 30
0.0
 11
-143.9449668606467
 21
177.0965957437748
 31
0.0
  0
LINE
  5
178
330
1F
100
AcDbEntity
  8
0
  6
Continuous
 62
     7
100
AcDbLine
 10
-143.9449668606467
 20
193.0965957437748
 30
0.0
 11
-146.709945026655
 21
193.0965957437748
 31
0.0
  0
LINE
  5
179
330
1F
100
AcDbEntity
  8
0
  6
Continuous
 62
     7
100
AcDbLine
 10
-146.709945026655
 20
193.0965957437748
 30
0.0
 11
-146.709945026655
 21
177.0965957437748
 31
0.0
  0
LINE
  5
17A
330
1F
100
AcDbEntity
  8
0
  6
Continuous
 62
     7
100
AcDbLine
 10
-148.959945026655
 20
192.8965957437746
 30
0.0
 11
-148.959945026655
 21
177.0965957437748
 31
0.0
  0
LINE
  5
17B
330
1F
100
AcDbEntity
  8
0
  6
Continuous
 62
     7
100
AcDbLine
 10
-138.4697280266551
 20
157.0965957437748
 30
0.0
 11
-138.4697280266551
 21
160.0965957437748
 31
0.0
  0
LINE
  5
17C
330
1F
100
AcDbEntity
  8
0
  6
Continuous
 62
     7
100
AcDbLine
 10
-146.6697280266551
 20
160.0965957437748
 30
0.0
 11
-146.6697280266551
 21
157.0965957437748
 31
0.0
  0
LINE
  5
17D
330
1F
100
AcDbEntity
  8
0
  6
Continuous
 62
     7
100
AcDbLine
 10
-146.1697280266551
 20
160.5965957437748
 30
0.0
 11
-138.9697280266551
 21
160.5965957437748
 31
0.0
  0
LINE
  5
17E
330
1F
100
AcDbEntity
  8
0
  6
Continuous
 62
     7
100
AcDbLine
 10
-135.209945026655
 20
193.0965957437748
 30
0.0
 11
-137.0749231926633
 21
193.0965957437748
 31
0.0
  0
LINE
  5
17F
330
1F
100
AcDbEntity
  8
0
  6
Continuous
 62
     7
100
AcDbLine
 10
-137.0749231926633
 20
193.0965957437748
 30
0.0
 11
-137.0749231926633
 21
177.0965957437748
 31
0.0
  0
LINE
  5
180
330
1F
100
AcDbEntity
  8
0
  6
Continuous
 62
     7
100
AcDbLine
 10
-137.3197280266551
 20
174.5965957437748
 30
0.0
 11
-137.3197280266551
 21
171.9465957437748
 31
0.0
  0
LINE
  5
181
330
1F
100
AcDbEntity
  8
0
  6
Continuous
 62
     7
100
AcDbLine
 10
-135.209945026655
 20
174.5965957437748
 30
0.0
 11
-137.3197280266551
 21
174.5965957437748
 31
0.0
  0
LINE
  5
182
330
1F
100
AcDbEntity
  8
0
  6
Continuous
 62
     7
100
AcDbLine
 10
-149.909945026655
 20
153.0965957437748
 30
0.0
 11
-135.209945026655
 21
153.0965957437748
 31
0.0
  0
LINE
  5
183
330
1F
100
AcDbEntity
  8
0
  6
Continuous
 62
     7
100
AcDbLine
 10
-136.809945026655
 20
154.4965957437747
 30
0.0
 11
-135.209945026655
 21
154.4965957437747
 31
0.0
  0
LINE
  5
184
330
1F
100
AcDbEntity
  8
0
  6
Continuous
 62
     7
100
AcDbLine
 10
-136.809945026655
 20
157.0965957437748
 30
0.0
 11
-133.609945026655
 21
157.0965957437748
 31
0.0
  0
LINE
  5
185
330
1F
100
AcDbEntity
  8
0
  6
Continuous
 62
     7
100
AcDbLine
 10
-137.3197280266551
 20
171.9465957437748
 30
0.0
 11
-135.209945026655
 21
171.9465957437748
 31
0.0
  0
LINE
  5
186
330
1F
100
AcDbEntity
  8
0
  6
Continuous
 62
     7
100
AcDbLine
 10
-137.0749231926633
 20
177.0965957437748
 30
0.0
 11
-135.209945026655
 21
177.0965957437748
 31
0.0
  0
LINE
  5
187
330
1F
100
AcDbEntity
  8
0
  6
Continuous
 62
     7
100
AcDbLine
 10
-135.209945026655
 20
177.0965957437748
 30
0.0
 11
-133.3449668606467
 21
177.0965957437748
 31
0.0
  0
LINE
  5
188
330
1F
100
AcDbEntity
  8
0
  6
Continuous
 62
     7
100
AcDbLine
 10
-135.209945026655
 20
171.9465957437748
 30
0.0
 11
-133.1001620266549
 21
171.9465957437748
 31
0.0
  0
LINE
  5
189
330
1F
100
AcDbEntity
  8
0
  6
Continuous
 62
     7
100
AcDbLine
 10
-135.209945026655
 20
154.4965957437747
 30
0.0
 11
-133.609945026655
 21
154.4965957437747
 31
0.0
  0
LINE
  5
18A
330
1F
100
AcDbEntity
  8
0
  6
Continuous
 62
     7
100
AcDbLine
 10
-135.209945026655
 20
153.0965957437748
 30
0.0
 11
-120.509945026655
 21
153.0965957437748
 31
0.0
  0
LINE
  5
18B
330
1F
100
AcDbEntity
  8
0
  6
Continuous
 62
     7
100
AcDbLine
 10
-123.7501620266548
 20
255.9741027675405
 30
0.0
 11
-131.9501620266548
 21
255.9741027675405
 31
0.0
  0
LINE
  5
18C
330
1F
100
AcDbEntity
  8
0
  6
Continuous
 62
     7
100
AcDbLine
 10
-138.450162026655
 20
255.9741027675405
 30
0.0
 11
-146.650162026655
 21
255.9741027675405
 31
0.0
  0
LINE
  5
18D
330
1F
100
AcDbEntity
  8
0
  6
Continuous
 62
     7
100
AcDbLine
 10
-146.650162026655
 20
255.9741027675405
 30
0.0
 11
-149.9099450266549
 21
255.9741027675405
 31
0.0
  0
LINE
  5
18E
330
1F
100
AcDbEntity
  8
0
  6
Continuous
 62
     7
100
AcDbLine
 10
-120.509945026655
 20
255.9741027675405
 30
0.0
 11
-123.7501620266548
 21
255.9741027675405
 31
0.0
  0
LINE
  5
18F
330
1F
100
AcDbEntity
  8
0
  6
Continuous
 62
     7
100
AcDbLine
 10
-131.9501620266548
 20
255.9741027675405
 30
0.0
 11
-138.450162026655
 21
255.9741027675405
 31
0.0
  0
LINE
  5
190
330
1F
100
AcDbEntity
  8
0
  6
Continuous
 62
     7
100
AcDbLine
 10
-145.650162026655
 20
225.9741027675405
 30
0.0
 11
-145.650162026655
 21
223.9741027675405
 31
0.0
  0
LINE
  5
191
330
1F
100
AcDbEntity
  8
0
  6
Continuous
 62
     7
100
AcDbLine
 10
-139.450162026655
 20
223.9741027675405
 30
0.0
 11
-139.450162026655
 21
225.9741027675405
 31
0.0
  0
LINE
  5
192
330
1F
100
AcDbEntity
  8
0
  6
Continuous
 62
     7
100
AcDbLine
 10
-145.650162026655
 20
223.9741027675405
 30
0.0
 11
-139.450162026655
 21
223.9741027675405
 31
0.0
  0
LINE
  5
193
330
1F
100
AcDbEntity
  8
0
  6
Continuous
 62
     7
100
AcDbLine
 10
-149.9099450266549
 20
255.9741027675405
 30
0.0
 11
-149.9099450266549
 21
252.5241027675405
 31
0.0
  0
LINE
  5
194
330
1F
100
AcDbEntity
  8
0
  6
Continuous
 62
     7
100
AcDbLine
 10
-130.9501620266548
 20
223.9741027675405
 30
0.0
 11
-124.7501620266548
 21
223.9741027675405
 31
0.0
  0
LINE
  5
195
330
1F
100
AcDbEntity
  8
0
  6
Continuous
 62
     7
100
AcDbLine
 10
-130.9501620266548
 20
225.9741027675405
 30
0.0
 11
-130.9501620266548
 21
223.9741027675405
 31
0.0
  0
LINE
  5
196
330
1F
100
AcDbEntity
  8
0
  6
Continuous
 62
     7
100
AcDbLine
 10
-120.509945026655
 20
225.9741027675405
 30
0.0
 11
-120.509945026655
 21
228.9741027675405
 31
0.0
  0
LINE
  5
197
330
1F
100
AcDbEntity
  8
0
  6
Continuous
 62
     7
100
AcDbLine
 10
-124.7501620266548
 20
223.9741027675405
 30
0.0
 11
-124.7501620266548
 21
225.9741027675405
 31
0.0
  0
LINE
  5
198
330
1F
100
AcDbEntity
  8
0
  6
Continuous
 62
     7
100
AcDbLine
 10
-123.7501620266548
 20
255.9741027675405
 30
0.0
 11
-123.7501620266548
 21
257.9741027675404
 31
0.0
  0
LINE
  5
199
330
1F
100
AcDbEntity
  8
0
  6
Continuous
 62
     7
100
AcDbLine
 10
-120.509945026655
 20
252.9741027675405
 30
0.0
 11
-121.409945026655
 21
252.9741027675405
 31
0.0
  0
LINE
  5
19A
330
1F
100
AcDbEntity
  8
0
  6
Continuous
 62
     7
100
AcDbLine
 10
-120.509945026655
 20
255.9741027675405
 30
0.0
 11
-120.509945026655
 21
252.9741027675405
 31
0.0
  0
LINE
  5
19B
330
1F
100
AcDbEntity
  8
0
  6
Continuous
 62
     7
100
AcDbLine
 10
-120.509945026655
 20
252.3183629906245
 30
0.0
 11
-120.509945026655
 21
252.9741027675405
 31
0.0
  0
LINE
  5
19C
330
1F
100
AcDbEntity
  8
0
  6
Continuous
 62
     7
100
AcDbLine
 10
-131.9501620266548
 20
257.9741027675404
 30
0.0
 11
-131.9501620266548
 21
255.9741027675405
 31
0.0
  0
LINE
  5
19D
330
1F
100
AcDbEntity
  8
0
  6
Continuous
 62
     7
100
AcDbLine
 10
-123.7501620266548
 20
257.9741027675404
 30
0.0
 11
-131.9501620266548
 21
257.9741027675404
 31
0.0
  0
LINE
  5
19E
330
1F
100
AcDbEntity
  8
0
  6
Continuous
 62
     7
100
AcDbLine
 10
-148.9099450266549
 20
252.5241027675405
 30
0.0
 11
-148.9099450266549
 21
249.4241027675405
 31
0.0
  0
LINE
  5
19F
330
1F
100
AcDbEntity
  8
0
  6
Continuous
 62
     7
100
AcDbLine
 10
-148.809945026655
 20
234.7241027675405
 30
0.0
 11
-148.809945026655
 21
247.2241027675405
 31
0.0
  0
LINE
  5
1A0
330
1F
100
AcDbEntity
  8
0
  6
Continuous
 62
     7
100
AcDbLine
 10
-149.9099450266549
 20
234.7241027675405
 30
0.0
 11
-149.9099450266549
 21
247.2241027675405
 31
0.0
  0
LINE
  5
1A1
330
1F
100
AcDbEntity
  8
0
  6
Continuous
 62
     7
100
AcDbLine
 10
-149.9099450266549
 20
247.2241027675405
 30
0.0
 11
-149.909945026655
 21
249.4241027675406
 31
0.0
  0
LINE
  5
1A2
330
1F
100
AcDbEntity
  8
0
  6
Continuous
 62
     7
100
AcDbLine
 10
-148.809945026655
 20
247.2241027675405
 30
0.0
 11
-149.9099450266549
 21
247.2241027675405
 31
0.0
  0
LINE
  5
1A3
330
1F
100
AcDbEntity
  8
0
  6
Continuous
 62
     7
100
AcDbLine
 10
-149.9099450266549
 20
234.7241027675405
 30
0.0
 11
-148.809945026655
 21
234.7241027675405
 31
0.0
  0
LINE
  5
1A4
330
1F
100
AcDbEntity
  8
0
  6
Continuous
 62
     7
100
AcDbLine
 10
-120.509945026655
 20
249.6298425444565
 30
0.0
 11
-120.509945026655
 21
247.2241027675405
 31
0.0
  0
LINE
  5
1A5
330
1F
100
AcDbEntity
  8
0
  6
Continuous
 62
     7
100
AcDbLine
 10
-120.509945026655
 20
247.2241027675405
 30
0.0
 11
-120.509945026655
 21
234.7241027675405
 31
0.0
  0
LINE
  5
1A6
330
1F
100
AcDbEntity
  8
0
  6
Continuous
 62
     7
100
AcDbLine
 10
-121.609945026655
 20
247.2241027675405
 30
0.0
 11
-121.609945026655
 21
234.7241027675405
 31
0.0
  0
LINE
  5
1A7
330
1F
100
AcDbEntity
  8
0
  6
Continuous
 62
     7
100
AcDbLine
 10
-120.509945026655
 20
228.9741027675405
 30
0.0
 11
-120.509945026655
 21
229.6298425444565
 31
0.0
  0
LINE
  5
1A8
330
1F
100
AcDbEntity
  8
0
  6
Continuous
 62
     7
100
AcDbLine
 10
-120.509945026655
 20
234.7241027675405
 30
0.0
 11
-120.509945026655
 21
232.3183629906245
 31
0.0
  0
LINE
  5
1A9
330
1F
100
AcDbEntity
  8
0
  6
Continuous
 62
     7
100
AcDbLine
 10
-121.609945026655
 20
234.7241027675405
 30
0.0
 11
-120.509945026655
 21
234.7241027675405
 31
0.0
  0
LINE
  5
1AA
330
1F
100
AcDbEntity
  8
0
  6
Continuous
 62
     7
100
AcDbLine
 10
-120.509945026655
 20
247.2241027675405
 30
0.0
 11
-121.609945026655
 21
247.2241027675405
 31
0.0
  0
LINE
  5
1AB
330
1F
100
AcDbEntity
  8
0
  6
Continuous
 62
     7
100
AcDbLine
 10
-130.9501620266548
 20
225.9741027675405
 30
0.0
 11
-139.450162026655
 21
225.9741027675405
 31
0.0
  0
LINE
  5
1AC
330
1F
100
AcDbEntity
  8
0
  6
Continuous
 62
     7
100
AcDbLine
 10
-124.7501620266548
 20
225.9741027675405
 30
0.0
 11
-130.9501620266548
 21
225.9741027675405
 31
0.0
  0
LINE
  5
1AD
330
1F
100
AcDbEntity
  8
0
  6
Continuous
 62
     7
100
AcDbLine
 10
-120.509945026655
 20
225.9741027675405
 30
0.0
 11
-124.7501620266548
 21
225.9741027675405
 31
0.0
  0
LINE
  5
1AE
330
1F
100
AcDbEntity
  8
0
  6
Continuous
 62
     7
100
AcDbLine
 10
-139.450162026655
 20
225.9741027675405
 30
0.0
 11
-145.650162026655
 21
225.9741027675405
 31
0.0
  0
LINE
  5
1AF
330
1F
100
AcDbEntity
  8
0
  6
Continuous
 62
     7
100
AcDbLine
 10
-145.650162026655
 20
225.9741027675405
 30
0.0
 11
-149.9099450266549
 21
225.9741027675405
 31
0.0
  0
LINE
  5
1B0
330
1F
100
AcDbEntity
  8
0
  6
Continuous
 62
     7
100
AcDbLine
 10
-148.9099450266549
 20
229.4241027675405
 30
0.0
 11
-148.9099450266549
 21
232.5241027675405
 31
0.0
  0
LINE
  5
1B1
330
1F
100
AcDbEntity
  8
0
  6
Continuous
 62
     7
100
AcDbLine
 10
-149.9099450266549
 20
232.5241027675405
 30
0.0
 11
-149.9099450266549
 21
234.7241027675405
 31
0.0
  0
LINE
  5
1B2
330
1F
100
AcDbEntity
  8
0
  6
Continuous
 62
     7
100
AcDbLine
 10
-138.450162026655
 20
257.9741027675404
 30
0.0
 11
-146.650162026655
 21
257.9741027675404
 31
0.0
  0
LINE
  5
1B3
330
1F
100
AcDbEntity
  8
0
  6
Continuous
 62
     7
100
AcDbLine
 10
-138.450162026655
 20
255.9741027675405
 30
0.0
 11
-138.450162026655
 21
257.9741027675404
 31
0.0
  0
LINE
  5
1B4
330
1F
100
AcDbEntity
  8
0
  6
Continuous
 62
     7
100
AcDbLine
 10
-146.650162026655
 20
257.9741027675404
 30
0.0
 11
-146.650162026655
 21
255.9741027675405
 31
0.0
  0
LINE
  5
1B5
330
1F
100
AcDbEntity
  8
0
  6
Continuous
 62
     7
100
AcDbLine
 10
-133.1001620266549
 20
174.5965957437748
 30
0.0
 11
-135.209945026655
 21
174.5965957437748
 31
0.0
  0
LINE
  5
1B6
330
1F
100
AcDbEntity
  8
0
  6
Continuous
 62
     7
100
AcDbLine
 10
-133.3449668606467
 20
177.0965957437748
 30
0.0
 11
-133.3449668606467
 21
193.0965957437748
 31
0.0
  0
LINE
  5
1B7
330
1F
100
AcDbEntity
  8
0
  6
Continuous
 62
     7
100
AcDbLine
 10
-133.3449668606467
 20
193.0965957437748
 30
0.0
 11
-135.209945026655
 21
193.0965957437748
 31
0.0
  0
LINE
  5
1B8
330
1F
100
AcDbEntity
  8
0
  6
Continuous
 62
     7
100
AcDbLine
 10
-131.4501620266549
 20
160.5965957437748
 30
0.0
 11
-124.2501620266548
 21
160.5965957437748
 31
0.0
  0
LINE
  5
1B9
330
1F
100
AcDbEntity
  8
0
  6
Continuous
 62
     7
100
AcDbLine
 10
-123.7501620266548
 20
157.0965957437748
 30
0.0
 11
-123.7501620266548
 21
160.0965957437748
 31
0.0
  0
LINE
  5
1BA
330
1F
100
AcDbEntity
  8
0
  6
Continuous
 62
     7
100
AcDbLine
 10
-131.9501620266549
 20
160.0965957437748
 30
0.0
 11
-131.9501620266549
 21
157.0965957437748
 31
0.0
  0
LINE
  5
1BB
330
1F
100
AcDbEntity
  8
0
  6
Continuous
 62
     7
100
AcDbLine
 10
-120.509945026655
 20
157.0965957437748
 30
0.0
 11
-120.509945026655
 21
171.9465957437748
 31
0.0
  0
LINE
  5
1BC
330
1F
100
AcDbEntity
  8
0
  6
Continuous
 62
     7
100
AcDbLine
 10
-121.459945026655
 20
177.0965957437748
 30
0.0
 11
-121.459945026655
 21
192.8965957437746
 31
0.0
  0
LINE
  5
1BD
330
1F
100
AcDbEntity
  8
0
  6
Continuous
 62
     7
100
AcDbLine
 10
-123.709945026655
 20
177.0965957437748
 30
0.0
 11
-123.709945026655
 21
193.0965957437748
 31
0.0
  0
LINE
  5
1BE
330
1F
100
AcDbEntity
  8
0
  6
Continuous
 62
     7
100
AcDbLine
 10
-123.709945026655
 20
193.0965957437748
 30
0.0
 11
-126.4749231926632
 21
193.0965957437748
 31
0.0
  0
LINE
  5
1BF
330
1F
100
AcDbEntity
  8
0
  6
Continuous
 62
     7
100
AcDbLine
 10
-126.4749231926632
 20
177.0965957437748
 30
0.0
 11
-126.4749231926632
 21
193.0965957437748
 31
0.0
  0
LINE
  5
1C0
330
1F
100
AcDbEntity
  8
0
  6
Continuous
 62
     7
100
AcDbLine
 10
-126.4749231926632
 20
177.0965957437748
 30
0.0
 11
-123.709945026655
 21
177.0965957437748
 31
0.0
  0
LINE
  5
1C1
330
1F
100
AcDbEntity
  8
0
  6
Continuous
 62
     7
100
AcDbLine
 10
-120.509945026655
 20
174.5965957437748
 30
0.0
 11
-120.509945026655
 21
177.0965957437748
 31
0.0
  0
LINE
  5
1C2
330
1F
100
AcDbEntity
  8
0
  6
Continuous
 62
     7
100
AcDbLine
 10
-122.509945026655
 20
174.5965957437748
 30
0.0
 11
-120.509945026655
 21
174.5965957437748
 31
0.0
  0
LINE
  5
1C3
330
1F
100
AcDbEntity
  8
0
  6
Continuous
 62
     7
100
AcDbLine
 10
-121.459945026655
 20
177.0965957437748
 30
0.0
 11
-120.509945026655
 21
177.0965957437748
 31
0.0
  0
LINE
  5
1C4
330
1F
100
AcDbEntity
  8
0
  6
Continuous
 62
     7
100
AcDbLine
 10
-123.709945026655
 20
177.0965957437748
 30
0.0
 11
-121.459945026655
 21
177.0965957437748
 31
0.0
  0
LINE
  5
1C5
330
1F
100
AcDbEntity
  8
0
  6
Continuous
 62
     7
100
AcDbLine
 10
-120.509945026655
 20
174.5965957437748
 30
0.0
 11
-120.509945026655
 21
171.9465957437748
 31
0.0
  0
LINE
  5
1C6
330
1F
100
AcDbEntity
  8
0
  6
Continuous
 62
     7
100
AcDbLine
 10
-122.509945026655
 20
174.5965957437748
 30
0.0
 11
-122.509945026655
 21
171.9465957437748
 31
0.0
  0
LINE
  5
1C7
330
1F
100
AcDbEntity
  8
0
  6
Continuous
 62
     7
100
AcDbLine
 10
-123.709945026655
 20
193.0965957437748
 30
0.0
 11
-121.659945026655
 21
193.0965957437748
 31
0.0
  0
LINE
  5
1C8
330
1F
100
AcDbEntity
  8
0
  6
Continuous
 62
     7
100
AcDbLine
 10
-126.4749231926632
 20
193.0965957437748
 30
0.0
 11
-128.6218118389081
 21
193.0965957437748
 31
0.0
  0
LINE
  5
1C9
330
1F
100
AcDbEntity
  8
0
  6
Continuous
 62
     7
100
AcDbLine
 10
-131.1980782144019
 20
193.0965957437748
 30
0.0
 11
-128.6218118389081
 21
193.0965957437748
 31
0.0
  0
LINE
  5
1CA
330
1F
100
AcDbEntity
  8
0
  6
Continuous
 62
     7
100
AcDbLine
 10
-131.1980782144019
 20
193.0965957437748
 30
0.0
 11
-133.3449668606467
 21
193.0965957437748
 31
0.0
  0
LINE
  5
1CB
330
1F
100
AcDbEntity
  8
0
  6
Continuous
 62
     7
100
AcDbLine
 10
-133.1001620266549
 20
171.9465957437748
 30
0.0
 11
-133.1001620266549
 21
174.5965957437748
 31
0.0
  0
LINE
  5
1CC
330
1F
100
AcDbEntity
  8
0
  6
Continuous
 62
     7
100
AcDbLine
 10
-122.509945026655
 20
171.9465957437748
 30
0.0
 11
-120.509945026655
 21
171.9465957437748
 31
0.0
  0
LINE
  5
1CD
330
1F
100
AcDbEntity
  8
0
  6
Continuous
 62
     7
100
AcDbLine
 10
-133.3449668606467
 20
177.0965957437748
 30
0.0
 11
-126.4749231926632
 21
177.0965957437748
 31
0.0
  0
LINE
  5
1CE
330
1F
100
AcDbEntity
  8
0
  6
Continuous
 62
     7
100
AcDbLine
 10
-120.509945026655
 20
153.0965957437748
 30
0.0
 11
-120.509945026655
 21
157.0965957437748
 31
0.0
  0
LINE
  5
1CF
330
1F
100
AcDbEntity
  8
0
  6
Continuous
 62
     7
100
AcDbLine
 10
-123.7501620266548
 20
157.0965957437748
 30
0.0
 11
-131.9501620266549
 21
157.0965957437748
 31
0.0
  0
LINE
  5
1D0
330
1F
100
AcDbEntity
  8
0
  6
Continuous
 62
     7
100
AcDbLine
 10
-133.609945026655
 20
154.4965957437747
 30
0.0
 11
-133.609945026655
 21
157.0965957437748
 31
0.0
  0
LINE
  5
1D1
330
1F
100
AcDbEntity
  8
0
  6
Continuous
 62
     7
100
AcDbLine
 10
-130.9501620266549
 20
113.2677879224406
 30
0.0
 11
-139.4501620266549
 21
113.2677879224406
 31
0.0
  0
LINE
  5
1D2
330
1F
100
AcDbEntity
  8
0
  6
Continuous
 62
     7
100
AcDbLine
 10
-125.2501620266549
 20
115.2677879224406
 30
0.0
 11
-124.7501620266549
 21
115.2677879224406
 31
0.0
  0
LINE
  5
1D3
330
1F
100
AcDbEntity
  8
0
  6
Continuous
 62
     7
100
AcDbLine
 10
-130.4501620266549
 20
115.2677879224406
 30
0.0
 11
-130.9501620266549
 21
115.2677879224406
 31
0.0
  0
LINE
  5
1D4
330
1F
100
AcDbEntity
  8
0
  6
Continuous
 62
     7
100
AcDbLine
 10
-139.9501620266549
 20
115.2677879224406
 30
0.0
 11
-145.150162026655
 21
115.2677879224406
 31
0.0
  0
LINE
  5
1D5
330
1F
100
AcDbEntity
  8
0
  6
Continuous
 62
     7
100
AcDbLine
 10
-145.150162026655
 20
115.2677879224406
 30
0.0
 11
-145.650162026655
 21
115.2677879224406
 31
0.0
  0
LINE
  5
1D6
330
1F
100
AcDbEntity
  8
0
  6
Continuous
 62
     7
100
AcDbLine
 10
-139.9501620266549
 20
115.2677879224406
 30
0.0
 11
-139.4501620266549
 21
115.2677879224406
 31
0.0
  0
LINE
  5
1D7
330
1F
100
AcDbEntity
  8
0
  6
Continuous
 62
     7
100
AcDbLine
 10
-125.2501620266549
 20
115.2677879224406
 30
0.0
 11
-130.4501620266549
 21
115.2677879224406
 31
0.0
  0
LINE
  5
1D8
330
1F
100
AcDbEntity
  8
0
  6
Continuous
 62
     7
100
AcDbLine
 10
-145.650162026655
 20
113.2677879224406
 30
0.0
 11
-149.909945026655
 21
113.2677879224406
 31
0.0
  0
LINE
  5
1D9
330
1F
100
AcDbEntity
  8
0
  6
Continuous
 62
     7
100
AcDbLine
 10
-139.4501620266549
 20
113.2677879224406
 30
0.0
 11
-145.650162026655
 21
113.2677879224406
 31
0.0
  0
LINE
  5
1DA
330
1F
100
AcDbEntity
  8
0
  6
Continuous
 62
     7
100
AcDbLine
 10
-124.7501620266549
 20
113.2677879224406
 30
0.0
 11
-130.9501620266549
 21
113.2677879224406
 31
0.0
  0
LINE
  5
1DB
330
1F
100
AcDbEntity
  8
0
  6
Continuous
 62
     7
100
AcDbLine
 10
-138.4501620266549
 20
81.26778792244056
 30
0.0
 11
-138.4501620266549
 21
83.26778792244056
 31
0.0
  0
LINE
  5
1DC
330
1F
100
AcDbEntity
  8
0
  6
Continuous
 62
     7
100
AcDbLine
 10
-133.3449668606468
 20
84.89278792244056
 30
0.0
 11
-137.0749231926632
 21
84.89278792244056
 31
0.0
  0
LINE
  5
1DD
330
1F
100
AcDbEntity
  8
0
  6
Continuous
 62
     7
100
AcDbLine
 10
-146.650162026655
 20
83.26778792244056
 30
0.0
 11
-138.4501620266549
 21
83.26778792244056
 31
0.0
  0
LINE
  5
1DE
330
1F
100
AcDbEntity
  8
0
  6
Continuous
 62
     7
100
AcDbLine
 10
-146.650162026655
 20
83.26778792244056
 30
0.0
 11
-149.909945026655
 21
83.26778792244056
 31
0.0
  0
LINE
  5
1DF
330
1F
100
AcDbEntity
  8
0
  6
Continuous
 62
     7
100
AcDbLine
 10
-146.650162026655
 20
83.26778792244056
 30
0.0
 11
-146.650162026655
 21
81.26778792244056
 31
0.0
  0
LINE
  5
1E0
330
1F
100
AcDbEntity
  8
0
  6
Continuous
 62
     7
100
AcDbLine
 10
-143.9449668606467
 20
84.89278792244056
 30
0.0
 11
-146.709945026655
 21
84.89278792244056
 31
0.0
  0
LINE
  5
1E1
330
1F
100
AcDbEntity
  8
0
  6
Continuous
 62
     7
100
AcDbLine
 10
-146.150162026655
 20
81.26778792244056
 30
0.0
 11
-138.9501620266549
 21
81.26778792244056
 31
0.0
  0
LINE
  5
1E2
330
1F
100
AcDbEntity
  8
0
  6
Continuous
 62
     7
100
AcDbLine
 10
-146.150162026655
 20
81.26778792244056
 30
0.0
 11
-146.650162026655
 21
81.26778792244056
 31
0.0
  0
LINE
  5
1E3
330
1F
100
AcDbEntity
  8
0
  6
Continuous
 62
     7
100
AcDbLine
 10
-148.709945026655
 20
89.84762531006538
 30
0.0
 11
-148.709945026655
 21
94.28795053481548
 31
0.0
  0
LINE
  5
1E4
330
1F
100
AcDbEntity
  8
0
  6
Continuous
 62
     7
100
AcDbLine
 10
-148.709945026655
 20
86.89278792244056
 30
0.0
 11
-148.709945026655
 21
87.38795053481556
 31
0.0
  0
LINE
  5
1E5
330
1F
100
AcDbEntity
  8
0
  6
Continuous
 62
     7
100
AcDbLine
 10
-121.709945026655
 20
87.38795053481556
 30
0.0
 11
-121.709945026655
 21
86.89278792244056
 31
0.0
  0
LINE
  5
1E6
330
1F
100
AcDbEntity
  8
0
  6
Continuous
 62
     7
100
AcDbLine
 10
-123.7501620266549
 20
83.26778792244056
 30
0.0
 11
-120.5099450266551
 21
83.26778792244056
 31
0.0
  0
LINE
  5
1E7
330
1F
100
AcDbEntity
  8
0
  6
Continuous
 62
     7
100
AcDbLine
 10
-123.709945026655
 20
84.89278792244056
 30
0.0
 11
-126.4749231926633
 21
84.89278792244056
 31
0.0
  0
LINE
  5
1E8
330
1F
100
AcDbEntity
  8
0
  6
Continuous
 62
     7
100
AcDbLine
 10
-131.9501620266549
 20
83.26778792244056
 30
0.0
 11
-123.7501620266549
 21
83.26778792244056
 31
0.0
  0
LINE
  5
1E9
330
1F
100
AcDbEntity
  8
0
  6
Continuous
 62
     7
100
AcDbLine
 10
-120.5099450266551
 20
83.26778792244056
 30
0.0
 11
-120.5099450266551
 21
113.2677879224406
 31
0.0
  0
LINE
  5
1EA
330
1F
100
AcDbEntity
  8
0
  6
Continuous
 62
     7
100
AcDbLine
 10
-131.4501620266549
 20
81.26778792244056
 30
0.0
 11
-124.2501620266549
 21
81.26778792244056
 31
0.0
  0
LINE
  5
1EB
330
1F
100
AcDbEntity
  8
0
  6
Continuous
 62
     7
100
AcDbLine
 10
-138.4501620266549
 20
83.26778792244056
 30
0.0
 11
-131.9501620266549
 21
83.26778792244056
 31
0.0
  0
LINE
  5
1EC
330
1F
100
AcDbEntity
  8
0
  6
Continuous
 62
     7
100
AcDbLine
 10
-138.9501620266549
 20
81.26778792244056
 30
0.0
 11
-138.4501620266549
 21
81.26778792244056
 31
0.0
  0
LINE
  5
1ED
330
1F
100
AcDbEntity
  8
0
  6
Continuous
 62
     7
100
AcDbLine
 10
-131.9501620266549
 20
83.26778792244056
 30
0.0
 11
-131.9501620266549
 21
81.26778792244056
 31
0.0
  0
LINE
  5
1EE
330
1F
100
AcDbEntity
  8
0
  6
Continuous
 62
     7
100
AcDbLine
 10
-131.4501620266549
 20
81.26778792244056
 30
0.0
 11
-131.9501620266549
 21
81.26778792244056
 31
0.0
  0
LINE
  5
1EF
330
1F
100
AcDbEntity
  8
0
  6
Continuous
 62
     7
100
AcDbLine
 10
-124.2501620266549
 20
81.26778792244056
 30
0.0
 11
-123.7501620266549
 21
81.26778792244056
 31
0.0
  0
LINE
  5
1F0
330
1F
100
AcDbEntity
  8
0
  6
Continuous
 62
     7
100
AcDbLine
 10
-123.7501620266549
 20
81.26778792244056
 30
0.0
 11
-123.7501620266549
 21
83.26778792244056
 31
0.0
  0
LINE
  5
1F1
330
1F
100
AcDbEntity
  8
0
  6
Continuous
 62
     7
100
AcDbLine
 10
-121.709945026655
 20
94.28795053481548
 30
0.0
 11
-121.709945026655
 21
89.84762531006538
 31
0.0
  0
LINE
  5
1F2
330
1F
100
AcDbEntity
  8
0
  6
Continuous
 62
     7
100
AcDbLine
 10
-121.709945026655
 20
105.0677879224405
 30
0.0
 11
-123.959945026655
 21
104.8677879224405
 31
0.0
  0
LINE
  5
1F3
330
1F
100
AcDbEntity
  8
0
  6
Continuous
 62
     7
100
AcDbLine
 10
-123.959945026655
 20
104.8677879224405
 30
0.0
 11
-123.959945026655
 21
104.0677879224405
 31
0.0
  0
LINE
  5
1F4
330
1F
100
AcDbEntity
  8
0
  6
DOT_CENTER
 62
     7
100
AcDbLine
 10
-123.959945026655
 20
104.0677879224405
 30
0.0
 11
-121.709945026655
 21
103.8677879224405
 31
0.0
  0
LINE
  5
1F5
330
1F
100
AcDbEntity
  8
0
  6
Continuous
 62
     7
100
AcDbLine
 10
-121.709945026655
 20
106.6879505348158
 30
0.0
 11
-121.709945026655
 21
105.0677879224405
 31
0.0
  0
LINE
  5
1F6
330
1F
100
AcDbEntity
  8
0
  6
Continuous
 62
     7
100
AcDbLine
 10
-121.709945026655
 20
103.8677879224405
 30
0.0
 11
-121.709945026655
 21
102.2476253100654
 31
0.0
  0
LINE
  5
1F7
330
1F
100
AcDbEntity
  8
0
  6
Continuous
 62
     7
100
AcDbLine
 10
-121.709945026655
 20
99.78795053481548
 30
0.0
 11
-121.709945026655
 21
96.74762531006536
 31
0.0
  0
LINE
  5
1F8
330
1F
100
AcDbEntity
  8
0
  6
Continuous
 62
     7
100
AcDbLine
 10
-139.4501620266549
 20
113.2677879224406
 30
0.0
 11
-139.4501620266549
 21
115.2677879224406
 31
0.0
  0
LINE
  5
1F9
330
1F
100
AcDbEntity
  8
0
  6
Continuous
 62
     7
100
AcDbLine
 10
-137.0749231926632
 20
111.6427879224406
 30
0.0
 11
-133.3449668606468
 21
111.6427879224406
 31
0.0
  0
LINE
  5
1FA
330
1F
100
AcDbEntity
  8
0
  6
Continuous
 62
     7
100
AcDbLine
 10
-146.709945026655
 20
111.6427879224406
 30
0.0
 11
-143.9449668606467
 21
111.6427879224406
 31
0.0
  0
LINE
  5
1FB
330
1F
100
AcDbEntity
  8
0
  6
Continuous
 62
     7
100
AcDbLine
 10
-124.7501620266549
 20
113.2677879224406
 30
0.0
 11
-120.5099450266551
 21
113.2677879224406
 31
0.0
  0
LINE
  5
1FC
330
1F
100
AcDbEntity
  8
0
  6
Continuous
 62
     7
100
AcDbLine
 10
-124.7501620266549
 20
113.2677879224406
 30
0.0
 11
-124.7501620266549
 21
115.2677879224406
 31
0.0
  0
LINE
  5
1FD
330
1F
100
AcDbEntity
  8
0
  6
Continuous
 62
     7
100
AcDbLine
 10
-130.9501620266549
 20
115.2677879224406
 30
0.0
 11
-130.9501620266549
 21
113.2677879224406
 31
0.0
  0
LINE
  5
1FE
330
1F
100
AcDbEntity
  8
0
  6
Continuous
 62
     7
100
AcDbLine
 10
-121.709945026655
 20
109.6427879224406
 30
0.0
 11
-121.709945026655
 21
109.1476253100653
 31
0.0
  0
LINE
  5
1FF
330
1F
100
AcDbEntity
  8
0
  6
Continuous
 62
     7
100
AcDbLine
 10
-126.4749231926633
 20
111.6427879224406
 30
0.0
 11
-123.709945026655
 21
111.6427879224406
 31
0.0
  0
LINE
  5
200
330
1F
100
AcDbEntity
  8
0
  6
Continuous
 62
     7
100
AcDbLine
 10
-149.909945026655
 20
113.2677879224406
 30
0.0
 11
-149.909945026655
 21
83.26778792244056
 31
0.0
  0
LINE
  5
201
330
1F
100
AcDbEntity
  8
0
  6
Continuous
 62
     7
100
AcDbLine
 10
-145.650162026655
 20
115.2677879224406
 30
0.0
 11
-145.650162026655
 21
113.2677879224406
 31
0.0
  0
LINE
  5
202
330
1F
100
AcDbEntity
  8
0
  6
Continuous
 62
     7
100
AcDbLine
 10
-146.459945026655
 20
104.0677879224405
 30
0.0
 11
-146.459945026655
 21
104.8677879224405
 31
0.0
  0
LINE
  5
203
330
1F
100
AcDbEntity
  8
0
  6
Continuous
 62
     7
100
AcDbLine
 10
-148.709945026655
 20
109.1476253100653
 30
0.0
 11
-148.709945026655
 21
109.6427879224406
 31
0.0
  0
LINE
  5
204
330
1F
100
AcDbEntity
  8
0
  6
Continuous
 62
     7
100
AcDbLine
 10
-148.709945026655
 20
96.74762531006536
 30
0.0
 11
-148.709945026655
 21
99.78795053481548
 31
0.0
  0
LINE
  5
205
330
1F
100
AcDbEntity
  8
0
  6
Continuous
 62
     7
100
AcDbLine
 10
-148.709945026655
 20
105.0677879224405
 30
0.0
 11
-148.709945026655
 21
106.6879505348158
 31
0.0
  0
LINE
  5
206
330
1F
100
AcDbEntity
  8
0
  6
Continuous
 62
     7
100
AcDbLine
 10
-148.709945026655
 20
102.2476253100654
 30
0.0
 11
-148.709945026655
 21
103.8677879224405
 31
0.0
  0
LINE
  5
207
330
1F
100
AcDbEntity
  8
0
  6
Continuous
 62
     7
100
AcDbLine
 10
-148.709945026655
 20
103.8677879224405
 30
0.0
 11
-146.459945026655
 21
104.0677879224405
 31
0.0
  0
LINE
  5
208
330
1F
100
AcDbEntity
  8
0
  6
Continuous
 62
     7
100
AcDbLine
 10
-146.459945026655
 20
104.8677879224405
 30
0.0
 11
-148.709945026655
 21
105.0677879224405
 31
0.0
  0
LINE
  5
209
330
1F
100
AcDbEntity
  8
0
  6
Continuous
 62
     7
100
AcDbLine
 10
-144.0865762326936
 20
243.9241027675406
 30
0.0
 11
-143.8599450266619
 21
243.9241027675406
 31
0.0
  0
LINE
  5
20A
330
1F
100
AcDbEntity
  8
0
  6
Continuous
 62
     7
100
AcDbLine
 10
-147.759945026655
 20
243.9241027675406
 30
0.0
 11
-147.5333138206164
 21
243.9241027675406
 31
0.0
  0
LINE
  5
20B
330
1F
100
AcDbEntity
  8
0
  6
Continuous
 62
     7
100
AcDbLine
 10
-142.2333138206164
 20
245.0241027675405
 30
0.0
 11
-142.459945026655
 21
245.0241027675405
 31
0.0
  0
LINE
  5
20C
330
1F
100
AcDbEntity
  8
0
  6
Continuous
 62
     7
100
AcDbLine
 10
-126.5599450266482
 20
243.9241027675406
 30
0.0
 11
-126.3333138206164
 21
243.9241027675406
 31
0.0
  0
LINE
  5
20D
330
1F
100
AcDbEntity
  8
0
  6
Continuous
 62
     7
100
AcDbLine
 10
-133.4865762326936
 20
243.9241027675406
 30
0.0
 11
-133.2599450266618
 21
243.9241027675406
 31
0.0
  0
LINE
  5
20E
330
1F
100
AcDbEntity
  8
0
  6
Continuous
 62
     7
100
AcDbLine
 10
-137.1599450266482
 20
243.9241027675406
 30
0.0
 11
-136.9333138206164
 21
243.9241027675406
 31
0.0
  0
LINE
  5
20F
330
1F
100
AcDbEntity
  8
0
  6
Continuous
 62
     7
100
AcDbLine
 10
-122.8865762326936
 20
243.9241027675406
 30
0.0
 11
-122.6599450266618
 21
243.9241027675406
 31
0.0
  0
LINE
  5
210
330
1F
100
AcDbEntity
  8
0
  6
Continuous
 62
     7
100
AcDbLine
 10
-127.959945026655
 20
243.6596539828243
 30
0.0
 11
-127.959945026655
 21
245.0241027675405
 31
0.0
  0
LINE
  5
211
330
1F
100
AcDbEntity
  8
0
  6
Continuous
 62
     7
100
AcDbLine
 10
-127.959945026655
 20
243.1456417984579
 30
0.0
 11
-127.959945026655
 21
243.6596539828243
 31
0.0
  0
LINE
  5
212
330
1F
100
AcDbEntity
  8
0
  6
Continuous
 62
     7
100
AcDbLine
 10
-142.459945026655
 20
245.0241027675405
 30
0.0
 11
-142.459945026655
 21
243.6596539828243
 31
0.0
  0
LINE
  5
213
330
1F
100
AcDbEntity
  8
0
  6
Continuous
 62
     7
100
AcDbLine
 10
-120.509945026655
 20
243.7241027675405
 30
0.0
 11
-120.509945026655
 21
238.2241027675405
 31
0.0
  0
LINE
  5
214
330
1F
100
AcDbEntity
  8
0
  6
Continuous
 62
     7
100
AcDbLine
 10
-148.909945026655
 20
254.8741027675406
 30
0.0
 11
-141.7089029074831
 21
254.8741027675406
 31
0.0
  0
LINE
  5
215
330
1F
100
AcDbEntity
  8
0
  6
Continuous
 62
     7
100
AcDbLine
 10
-128.7109871458269
 20
254.8741027675406
 30
0.0
 11
-121.509945026655
 21
254.8741027675406
 31
0.0
  0
LINE
  5
216
330
1F
100
AcDbEntity
  8
0
  6
Continuous
 62
     7
100
AcDbLine
 10
-139.3109871458268
 20
254.8741027675406
 30
0.0
 11
-138.709945026655
 21
254.8741027675406
 31
0.0
  0
LINE
  5
217
330
1F
100
AcDbEntity
  8
0
  6
Continuous
 62
     7
100
AcDbLine
 10
-132.209945026655
 20
254.8741027675406
 30
0.0
 11
-131.1089029074832
 21
254.8741027675406
 31
0.0
  0
LINE
  5
218
330
1F
100
AcDbEntity
  8
0
  6
Continuous
 62
     7
100
AcDbLine
 10
-121.509945026655
 20
254.8741027675406
 30
0.0
 11
-121.509945026655
 21
248.9741027675405
 31
0.0
  0
LINE
  5
219
330
1F
100
AcDbEntity
  8
0
  6
Continuous
 62
     7
100
AcDbLine
 10
-131.859945026655
 20
250.5596539828244
 30
0.0
 11
-131.859945026655
 21
250.0456417984579
 31
0.0
  0
LINE
  5
21A
330
1F
100
AcDbEntity
  8
0
  6
Continuous
 62
     7
100
AcDbLine
 10
-131.859945026655
 20
251.9241027675406
 30
0.0
 11
-131.859945026655
 21
250.5596539828244
 31
0.0
  0
LINE
  5
21B
330
1F
100
AcDbEntity
  8
0
  6
Continuous
 62
     7
100
AcDbLine
 10
-138.559945026655
 20
250.0456417984579
 30
0.0
 11
-138.559945026655
 21
250.5596539828244
 31
0.0
  0
LINE
  5
21C
330
1F
100
AcDbEntity
  8
0
  6
Continuous
 62
     7
100
AcDbLine
 10
-138.559945026655
 20
250.5596539828244
 30
0.0
 11
-138.559945026655
 21
251.9241027675406
 31
0.0
  0
LINE
  5
21D
330
1F
100
AcDbEntity
  8
0
  6
Continuous
 62
     7
100
AcDbLine
 10
-142.459945026655
 20
250.5596539828244
 30
0.0
 11
-142.459945026655
 21
250.0456417984579
 31
0.0
  0
LINE
  5
21E
330
1F
100
AcDbEntity
  8
0
  6
Continuous
 62
     7
100
AcDbLine
 10
-142.459945026655
 20
251.9241027675406
 30
0.0
 11
-142.459945026655
 21
250.5596539828244
 31
0.0
  0
LINE
  5
21F
330
1F
100
AcDbEntity
  8
0
  6
Continuous
 62
     7
100
AcDbLine
 10
-127.959945026655
 20
250.5596539828244
 30
0.0
 11
-127.959945026655
 21
250.0456417984579
 31
0.0
  0
LINE
  5
220
330
1F
100
AcDbEntity
  8
0
  6
Continuous
 62
     7
100
AcDbLine
 10
-127.959945026655
 20
251.9241027675406
 30
0.0
 11
-127.959945026655
 21
250.5596539828244
 31
0.0
  0
LINE
  5
221
330
1F
100
AcDbEntity
  8
0
  6
Continuous
 62
     7
100
AcDbLine
 10
-122.659945026655
 20
252.1885515522567
 30
0.0
 11
-122.659945026655
 21
252.7025637366233
 31
0.0
  0
LINE
  5
222
330
1F
100
AcDbEntity
  8
0
  6
Continuous
 62
     7
100
AcDbLine
 10
-122.659945026655
 20
250.8241027675406
 30
0.0
 11
-122.659945026655
 21
252.1885515522567
 31
0.0
  0
LINE
  5
223
330
1F
100
AcDbEntity
  8
0
  6
Continuous
 62
     7
100
AcDbLine
 10
-122.8865762326936
 20
250.8241027675406
 30
0.0
 11
-122.659945026655
 21
250.8241027675406
 31
0.0
  0
LINE
  5
224
330
1F
100
AcDbEntity
  8
0
  6
Continuous
 62
     7
100
AcDbLine
 10
-126.5599450266549
 20
252.7025637366233
 30
0.0
 11
-126.559945026655
 21
252.1885515522567
 31
0.0
  0
LINE
  5
225
330
1F
100
AcDbEntity
  8
0
  6
Continuous
 62
     7
100
AcDbLine
 10
-127.959945026655
 20
251.9241027675406
 30
0.0
 11
-128.1865762326936
 21
251.9241027675406
 31
0.0
  0
LINE
  5
226
330
1F
100
AcDbEntity
  8
0
  6
Continuous
 62
     7
100
AcDbLine
 10
-131.6333138206165
 20
251.9241027675406
 30
0.0
 11
-131.859945026655
 21
251.9241027675406
 31
0.0
  0
LINE
  5
227
330
1F
100
AcDbEntity
  8
0
  6
Continuous
 62
     7
100
AcDbLine
 10
-126.5599450266482
 20
250.8241027675406
 30
0.0
 11
-126.3333138206164
 21
250.8241027675406
 31
0.0
  0
LINE
  5
228
330
1F
100
AcDbEntity
  8
0
  6
Continuous
 62
     7
100
AcDbLine
 10
-147.759945026655
 20
252.7025637366232
 30
0.0
 11
-147.759945026655
 21
252.1885515522567
 31
0.0
  0
LINE
  5
229
330
1F
100
AcDbEntity
  8
0
  6
Continuous
 62
     7
100
AcDbLine
 10
-143.859945026655
 20
252.1885515522567
 30
0.0
 11
-143.859945026655
 21
252.7025637366232
 31
0.0
  0
LINE
  5
22A
330
1F
100
AcDbEntity
  8
0
  6
Continuous
 62
     7
100
AcDbLine
 10
-138.559945026655
 20
251.9241027675406
 30
0.0
 11
-138.7865762326935
 21
251.9241027675406
 31
0.0
  0
LINE
  5
22B
330
1F
100
AcDbEntity
  8
0
  6
Continuous
 62
     7
100
AcDbLine
 10
-142.2333138206164
 20
251.9241027675406
 30
0.0
 11
-142.459945026655
 21
251.9241027675406
 31
0.0
  0
LINE
  5
22C
330
1F
100
AcDbEntity
  8
0
  6
Continuous
 62
     7
100
AcDbLine
 10
-144.0865762326924
 20
250.8241027675406
 30
0.0
 11
-143.8599450266617
 21
250.8241027675406
 31
0.0
  0
LINE
  5
22D
330
1F
100
AcDbEntity
  8
0
  6
Continuous
 62
     7
100
AcDbLine
 10
-133.4865762326936
 20
250.8241027675406
 30
0.0
 11
-133.2599450266618
 21
250.8241027675406
 31
0.0
  0
LINE
  5
22E
330
1F
100
AcDbEntity
  8
0
  6
Continuous
 62
     7
100
AcDbLine
 10
-137.159945026655
 20
250.8241027675406
 30
0.0
 11
-136.9333138206164
 21
250.8241027675406
 31
0.0
  0
LINE
  5
22F
330
1F
100
AcDbEntity
  8
0
  6
Continuous
 62
     7
100
AcDbLine
 10
-147.759945026655
 20
250.8241027675406
 30
0.0
 11
-147.5333138206164
 21
250.8241027675406
 31
0.0
  0
LINE
  5
230
330
1F
100
AcDbEntity
  8
0
  6
Continuous
 62
     7
100
AcDbLine
 10
-143.8599450266617
 20
250.8241027675406
 30
0.0
 11
-143.859945026655
 21
252.1885515522567
 31
0.0
  0
LINE
  5
231
330
1F
100
AcDbEntity
  8
0
  6
Continuous
 62
     7
100
AcDbLine
 10
-147.759945026655
 20
252.1885515522567
 30
0.0
 11
-147.759945026655
 21
250.8241027675406
 31
0.0
  0
LINE
  5
232
330
1F
100
AcDbEntity
  8
0
  6
Continuous
 62
     7
100
AcDbLine
 10
-126.559945026655
 20
252.1885515522567
 30
0.0
 11
-126.5599450266482
 21
250.8241027675406
 31
0.0
  0
LINE
  5
233
330
1F
100
AcDbEntity
  8
0
  6
Continuous
 62
     7
100
AcDbLine
 10
-133.259945026655
 20
236.6596539828243
 30
0.0
 11
-133.2599450266618
 21
238.0241027675405
 31
0.0
  0
LINE
  5
234
330
1F
100
AcDbEntity
  8
0
  6
Continuous
 62
     7
100
AcDbLine
 10
-131.859945026655
 20
231.3885515522568
 30
0.0
 11
-131.859945026655
 21
230.0241027675405
 31
0.0
  0
LINE
  5
235
330
1F
100
AcDbEntity
  8
0
  6
Continuous
 62
     7
100
AcDbLine
 10
-132.209945026655
 20
255.1741027675405
 30
0.0
 11
-132.209945026655
 21
254.8741027675406
 31
0.0
  0
LINE
  5
236
330
1F
100
AcDbEntity
  8
0
  6
Continuous
 62
     7
100
AcDbLine
 10
-149.909945026655
 20
249.4241027675406
 30
0.0
 11
-149.909945026655
 21
243.7241027675405
 31
0.0
  0
LINE
  5
237
330
1F
100
AcDbEntity
  8
0
  6
Continuous
 62
     7
100
AcDbLine
 10
-120.509945026655
 20
248.9741027675405
 30
0.0
 11
-120.509945026655
 21
243.7241027675405
 31
0.0
  0
LINE
  5
238
330
1F
100
AcDbEntity
  8
0
  6
Continuous
 62
     7
100
AcDbLine
 10
-121.509945026655
 20
248.9741027675405
 30
0.0
 11
-120.509945026655
 21
248.9741027675405
 31
0.0
  0
LINE
  5
239
330
1F
100
AcDbEntity
  8
0
  6
Continuous
 62
     7
100
AcDbLine
 10
-121.509945026655
 20
243.7241027675405
 30
0.0
 11
-120.509945026655
 21
243.7241027675405
 31
0.0
  0
LINE
  5
23A
330
1F
100
AcDbEntity
  8
0
  6
Continuous
 62
     7
100
AcDbLine
 10
-147.759945026655
 20
245.8025637366232
 30
0.0
 11
-147.759945026655
 21
245.2885515522567
 31
0.0
  0
LINE
  5
23B
330
1F
100
AcDbEntity
  8
0
  6
Continuous
 62
     7
100
AcDbLine
 10
-143.859945026655
 20
245.2885515522567
 30
0.0
 11
-143.859945026655
 21
245.8025637366232
 31
0.0
  0
LINE
  5
23C
330
1F
100
AcDbEntity
  8
0
  6
Continuous
 62
     7
100
AcDbLine
 10
-127.959945026655
 20
245.0241027675405
 30
0.0
 11
-128.1865762326936
 21
245.0241027675405
 31
0.0
  0
LINE
  5
23D
330
1F
100
AcDbEntity
  8
0
  6
Continuous
 62
     7
100
AcDbLine
 10
-131.6333138206165
 20
245.0241027675405
 30
0.0
 11
-131.859945026655
 21
245.0241027675405
 31
0.0
  0
LINE
  5
23E
330
1F
100
AcDbEntity
  8
0
  6
Continuous
 62
     7
100
AcDbLine
 10
-126.559945026655
 20
245.8025637366232
 30
0.0
 11
-126.559945026655
 21
245.2885515522567
 31
0.0
  0
LINE
  5
23F
330
1F
100
AcDbEntity
  8
0
  6
Continuous
 62
     7
100
AcDbLine
 10
-126.559945026655
 20
245.2885515522567
 30
0.0
 11
-126.5599450266482
 21
243.9241027675406
 31
0.0
  0
LINE
  5
240
330
1F
100
AcDbEntity
  8
0
  6
Continuous
 62
     7
100
AcDbLine
 10
-122.659945026655
 20
245.2885515522567
 30
0.0
 11
-122.659945026655
 21
245.8025637366232
 31
0.0
  0
LINE
  5
241
330
1F
100
AcDbEntity
  8
0
  6
Continuous
 62
     7
100
AcDbLine
 10
-122.6599450266618
 20
243.9241027675406
 30
0.0
 11
-122.659945026655
 21
245.2885515522567
 31
0.0
  0
LINE
  5
242
330
1F
100
AcDbEntity
  8
0
  6
Continuous
 62
     7
100
AcDbLine
 10
-147.759945026655
 20
245.2885515522567
 30
0.0
 11
-147.759945026655
 21
243.9241027675406
 31
0.0
  0
LINE
  5
243
330
1F
100
AcDbEntity
  8
0
  6
Continuous
 62
     7
100
AcDbLine
 10
-143.8599450266619
 20
243.9241027675406
 30
0.0
 11
-143.859945026655
 21
245.2885515522567
 31
0.0
  0
LINE
  5
244
330
1F
100
AcDbEntity
  8
0
  6
Continuous
 62
     7
100
AcDbLine
 10
-138.559945026655
 20
231.3885515522568
 30
0.0
 11
-138.559945026655
 21
231.9025637366232
 31
0.0
  0
LINE
  5
245
330
1F
100
AcDbEntity
  8
0
  6
Continuous
 62
     7
100
AcDbLine
 10
-138.559945026655
 20
245.0241027675405
 30
0.0
 11
-138.7865762326935
 21
245.0241027675405
 31
0.0
  0
LINE
  5
246
330
1F
100
AcDbEntity
  8
0
  6
Continuous
 62
     7
100
AcDbLine
 10
-138.559945026655
 20
238.2885515522567
 30
0.0
 11
-138.559945026655
 21
238.8025637366232
 31
0.0
  0
LINE
  5
247
330
1F
100
AcDbEntity
  8
0
  6
Continuous
 62
     7
100
AcDbLine
 10
-137.159945026655
 20
245.2885515522567
 30
0.0
 11
-137.1599450266482
 21
243.9241027675406
 31
0.0
  0
LINE
  5
248
330
1F
100
AcDbEntity
  8
0
  6
Continuous
 62
     7
100
AcDbLine
 10
-138.559945026655
 20
236.9241027675406
 30
0.0
 11
-138.559945026655
 21
238.2885515522567
 31
0.0
  0
LINE
  5
249
330
1F
100
AcDbEntity
  8
0
  6
Continuous
 62
     7
100
AcDbLine
 10
-138.559945026655
 20
243.6596539828243
 30
0.0
 11
-138.559945026655
 21
245.0241027675405
 31
0.0
  0
LINE
  5
24A
330
1F
100
AcDbEntity
  8
0
  6
Continuous
 62
     7
100
AcDbLine
 10
-138.559945026655
 20
230.0241027675405
 30
0.0
 11
-138.559945026655
 21
231.3885515522568
 31
0.0
  0
LINE
  5
24B
330
1F
100
AcDbEntity
  8
0
  6
Continuous
 62
     7
100
AcDbLine
 10
-131.1089029074832
 20
227.0741027675406
 30
0.0
 11
-132.209945026655
 21
227.0741027675406
 31
0.0
  0
LINE
  5
24C
330
1F
100
AcDbEntity
  8
0
  6
Continuous
 62
     7
100
AcDbLine
 10
-131.859945026655
 20
231.9025637366231
 30
0.0
 11
-131.859945026655
 21
231.3885515522568
 31
0.0
  0
LINE
  5
24D
330
1F
100
AcDbEntity
  8
0
  6
Continuous
 62
     7
100
AcDbLine
 10
-132.209945026655
 20
226.7741027675405
 30
0.0
 11
-132.209945026655
 21
227.0741027675406
 31
0.0
  0
LINE
  5
24E
330
1F
100
AcDbEntity
  8
0
  6
Continuous
 62
     7
100
AcDbLine
 10
-141.7089029074831
 20
227.0741027675406
 30
0.0
 11
-148.909945026655
 21
227.0741027675406
 31
0.0
  0
LINE
  5
24F
330
1F
100
AcDbEntity
  8
0
  6
Continuous
 62
     7
100
AcDbLine
 10
-138.709945026655
 20
227.0741027675406
 30
0.0
 11
-139.3109871458268
 21
227.0741027675406
 31
0.0
  0
LINE
  5
250
330
1F
100
AcDbEntity
  8
0
  6
Continuous
 62
     7
100
AcDbLine
 10
-142.459945026655
 20
231.9025637366232
 30
0.0
 11
-142.459945026655
 21
231.3885515522568
 31
0.0
  0
LINE
  5
251
330
1F
100
AcDbEntity
  8
0
  6
Continuous
 62
     7
100
AcDbLine
 10
-142.459945026655
 20
231.3885515522568
 30
0.0
 11
-142.459945026655
 21
230.0241027675405
 31
0.0
  0
LINE
  5
252
330
1F
100
AcDbEntity
  8
0
  6
Continuous
 62
     7
100
AcDbLine
 10
-147.759945026655
 20
229.7596539828243
 30
0.0
 11
-147.759945026655
 21
229.2456417984579
 31
0.0
  0
LINE
  5
253
330
1F
100
AcDbEntity
  8
0
  6
Continuous
 62
     7
100
AcDbLine
 10
-147.759945026655
 20
231.1241027675405
 30
0.0
 11
-147.759945026655
 21
229.7596539828243
 31
0.0
  0
LINE
  5
254
330
1F
100
AcDbEntity
  8
0
  6
Continuous
 62
     7
100
AcDbLine
 10
-143.859945026655
 20
229.2456417984579
 30
0.0
 11
-143.859945026655
 21
229.7596539828243
 31
0.0
  0
LINE
  5
255
330
1F
100
AcDbEntity
  8
0
  6
Continuous
 62
     7
100
AcDbLine
 10
-137.159945026655
 20
229.7596539828243
 30
0.0
 11
-137.1599450266549
 21
229.2456417984578
 31
0.0
  0
LINE
  5
256
330
1F
100
AcDbEntity
  8
0
  6
Continuous
 62
     7
100
AcDbLine
 10
-137.159945026655
 20
231.1241027675405
 30
0.0
 11
-137.159945026655
 21
229.7596539828243
 31
0.0
  0
LINE
  5
257
330
1F
100
AcDbEntity
  8
0
  6
Continuous
 62
     7
100
AcDbLine
 10
-142.459945026655
 20
230.0241027675405
 30
0.0
 11
-142.2333138206164
 21
230.0241027675405
 31
0.0
  0
LINE
  5
258
330
1F
100
AcDbEntity
  8
0
  6
Continuous
 62
     7
100
AcDbLine
 10
-138.7865762326935
 20
230.0241027675405
 30
0.0
 11
-138.559945026655
 21
230.0241027675405
 31
0.0
  0
LINE
  5
259
330
1F
100
AcDbEntity
  8
0
  6
Continuous
 62
     7
100
AcDbLine
 10
-147.5333138206164
 20
231.1241027675405
 30
0.0
 11
-147.759945026655
 21
231.1241027675405
 31
0.0
  0
LINE
  5
25A
330
1F
100
AcDbEntity
  8
0
  6
Continuous
 62
     7
100
AcDbLine
 10
-143.8599450266617
 20
231.1241027675405
 30
0.0
 11
-144.0865762326936
 21
231.1241027675405
 31
0.0
  0
LINE
  5
25B
330
1F
100
AcDbEntity
  8
0
  6
Continuous
 62
     7
100
AcDbLine
 10
-133.2599450266551
 20
229.2456417984578
 30
0.0
 11
-133.259945026655
 21
229.7596539828243
 31
0.0
  0
LINE
  5
25C
330
1F
100
AcDbEntity
  8
0
  6
Continuous
 62
     7
100
AcDbLine
 10
-133.259945026655
 20
231.1241027675405
 30
0.0
 11
-133.4865762326936
 21
231.1241027675405
 31
0.0
  0
LINE
  5
25D
330
1F
100
AcDbEntity
  8
0
  6
Continuous
 62
     7
100
AcDbLine
 10
-136.9333138206164
 20
231.1241027675405
 30
0.0
 11
-137.159945026655
 21
231.1241027675405
 31
0.0
  0
LINE
  5
25E
330
1F
100
AcDbEntity
  8
0
  6
Continuous
 62
     7
100
AcDbLine
 10
-133.259945026655
 20
229.7596539828243
 30
0.0
 11
-133.259945026655
 21
231.1241027675405
 31
0.0
  0
LINE
  5
25F
330
1F
100
AcDbEntity
  8
0
  6
Continuous
 62
     7
100
AcDbLine
 10
-143.859945026655
 20
229.7596539828243
 30
0.0
 11
-143.8599450266617
 21
231.1241027675405
 31
0.0
  0
LINE
  5
260
330
1F
100
AcDbEntity
  8
0
  6
Continuous
 62
     7
100
AcDbLine
 10
-120.509945026655
 20
232.9741027675405
 30
0.0
 11
-120.509945026655
 21
238.2241027675405
 31
0.0
  0
LINE
  5
261
330
1F
100
AcDbEntity
  8
0
  6
Continuous
 62
     7
100
AcDbLine
 10
-121.509945026655
 20
238.2241027675405
 30
0.0
 11
-120.509945026655
 21
238.2241027675405
 31
0.0
  0
LINE
  5
262
330
1F
100
AcDbEntity
  8
0
  6
Continuous
 62
     7
100
AcDbLine
 10
-121.509945026655
 20
232.9741027675405
 30
0.0
 11
-120.509945026655
 21
232.9741027675405
 31
0.0
  0
LINE
  5
263
330
1F
100
AcDbEntity
  8
0
  6
Continuous
 62
     7
100
AcDbLine
 10
-121.509945026655
 20
232.9741027675405
 30
0.0
 11
-121.509945026655
 21
227.0741027675406
 31
0.0
  0
LINE
  5
264
330
1F
100
AcDbEntity
  8
0
  6
Continuous
 62
     7
100
AcDbLine
 10
-122.659945026655
 20
236.1456417984579
 30
0.0
 11
-122.659945026655
 21
236.6596539828243
 31
0.0
  0
LINE
  5
265
330
1F
100
AcDbEntity
  8
0
  6
Continuous
 62
     7
100
AcDbLine
 10
-122.659945026655
 20
236.6596539828243
 30
0.0
 11
-122.6599450266618
 21
238.0241027675405
 31
0.0
  0
LINE
  5
266
330
1F
100
AcDbEntity
  8
0
  6
Continuous
 62
     7
100
AcDbLine
 10
-126.3333138206164
 20
238.0241027675405
 30
0.0
 11
-126.5599450266483
 21
238.0241027675405
 31
0.0
  0
LINE
  5
267
330
1F
100
AcDbEntity
  8
0
  6
Continuous
 62
     7
100
AcDbLine
 10
-122.6599450266618
 20
238.0241027675405
 30
0.0
 11
-122.8865762326936
 21
238.0241027675405
 31
0.0
  0
LINE
  5
268
330
1F
100
AcDbEntity
  8
0
  6
Continuous
 62
     7
100
AcDbLine
 10
-122.659945026655
 20
229.2456417984579
 30
0.0
 11
-122.659945026655
 21
229.7596539828243
 31
0.0
  0
LINE
  5
269
330
1F
100
AcDbEntity
  8
0
  6
Continuous
 62
     7
100
AcDbLine
 10
-122.659945026655
 20
229.7596539828243
 30
0.0
 11
-122.6599450266618
 21
231.1241027675405
 31
0.0
  0
LINE
  5
26A
330
1F
100
AcDbEntity
  8
0
  6
Continuous
 62
     7
100
AcDbLine
 10
-122.6599450266618
 20
231.1241027675405
 30
0.0
 11
-122.8865762326936
 21
231.1241027675405
 31
0.0
  0
LINE
  5
26B
330
1F
100
AcDbEntity
  8
0
  6
Continuous
 62
     7
100
AcDbLine
 10
-126.5599450266482
 20
231.1241027675405
 30
0.0
 11
-126.559945026655
 21
229.7596539828243
 31
0.0
  0
LINE
  5
26C
330
1F
100
AcDbEntity
  8
0
  6
Continuous
 62
     7
100
AcDbLine
 10
-126.559945026655
 20
229.7596539828243
 30
0.0
 11
-126.559945026655
 21
229.2456417984579
 31
0.0
  0
LINE
  5
26D
330
1F
100
AcDbEntity
  8
0
  6
Continuous
 62
     7
100
AcDbLine
 10
-126.559945026655
 20
236.6596539828243
 30
0.0
 11
-126.559945026655
 21
236.1456417984579
 31
0.0
  0
LINE
  5
26E
330
1F
100
AcDbEntity
  8
0
  6
Continuous
 62
     7
100
AcDbLine
 10
-126.3333138206164
 20
231.1241027675405
 30
0.0
 11
-126.5599450266482
 21
231.1241027675405
 31
0.0
  0
LINE
  5
26F
330
1F
100
AcDbEntity
  8
0
  6
Continuous
 62
     7
100
AcDbLine
 10
-131.859945026655
 20
230.0241027675405
 30
0.0
 11
-131.6333138206165
 21
230.0241027675405
 31
0.0
  0
LINE
  5
270
330
1F
100
AcDbEntity
  8
0
  6
Continuous
 62
     7
100
AcDbLine
 10
-127.959945026655
 20
231.3885515522568
 30
0.0
 11
-127.959945026655
 21
231.9025637366232
 31
0.0
  0
LINE
  5
271
330
1F
100
AcDbEntity
  8
0
  6
Continuous
 62
     7
100
AcDbLine
 10
-128.1865762326936
 20
230.0241027675405
 30
0.0
 11
-127.959945026655
 21
230.0241027675405
 31
0.0
  0
LINE
  5
272
330
1F
100
AcDbEntity
  8
0
  6
Continuous
 62
     7
100
AcDbLine
 10
-127.959945026655
 20
238.2885515522567
 30
0.0
 11
-127.959945026655
 21
238.8025637366232
 31
0.0
  0
LINE
  5
273
330
1F
100
AcDbEntity
  8
0
  6
Continuous
 62
     7
100
AcDbLine
 10
-127.959945026655
 20
230.0241027675405
 30
0.0
 11
-127.959945026655
 21
231.3885515522568
 31
0.0
  0
LINE
  5
274
330
1F
100
AcDbEntity
  8
0
  6
Continuous
 62
     7
100
AcDbLine
 10
-126.5599450266483
 20
238.0241027675405
 30
0.0
 11
-126.559945026655
 21
236.6596539828243
 31
0.0
  0
LINE
  5
275
330
1F
100
AcDbEntity
  8
0
  6
Continuous
 62
     7
100
AcDbLine
 10
-127.959945026655
 20
236.9241027675406
 30
0.0
 11
-127.959945026655
 21
238.2885515522567
 31
0.0
  0
LINE
  5
276
330
1F
100
AcDbEntity
  8
0
  6
Continuous
 62
     7
100
AcDbLine
 10
-121.509945026655
 20
227.0741027675406
 30
0.0
 11
-128.7109871458268
 21
227.0741027675406
 31
0.0
  0
LINE
  5
277
330
1F
100
AcDbEntity
  8
0
  6
Continuous
 62
     7
100
AcDbLine
 10
-131.859945026655
 20
245.0241027675405
 30
0.0
 11
-131.859945026655
 21
243.6596539828243
 31
0.0
  0
LINE
  5
278
330
1F
100
AcDbEntity
  8
0
  6
Continuous
 62
     7
100
AcDbLine
 10
-131.859945026655
 20
243.6596539828243
 30
0.0
 11
-131.859945026655
 21
243.1456417984579
 31
0.0
  0
LINE
  5
279
330
1F
100
AcDbEntity
  8
0
  6
Continuous
 62
     7
100
AcDbLine
 10
-138.559945026655
 20
243.1456417984578
 30
0.0
 11
-138.559945026655
 21
243.6596539828243
 31
0.0
  0
LINE
  5
27A
330
1F
100
AcDbEntity
  8
0
  6
Continuous
 62
     7
100
AcDbLine
 10
-142.459945026655
 20
243.6596539828243
 30
0.0
 11
-142.4599450266549
 21
243.1456417984578
 31
0.0
  0
LINE
  5
27B
330
1F
100
AcDbEntity
  8
0
  6
Continuous
 62
     7
100
AcDbLine
 10
-149.909945026655
 20
243.7241027675405
 30
0.0
 11
-149.909945026655
 21
238.2241027675405
 31
0.0
  0
LINE
  5
27C
330
1F
100
AcDbEntity
  8
0
  6
Continuous
 62
     7
100
AcDbLine
 10
-149.909945026655
 20
238.2241027675405
 30
0.0
 11
-148.909945026655
 21
238.2241027675405
 31
0.0
  0
LINE
  5
27D
330
1F
100
AcDbEntity
  8
0
  6
Continuous
 62
     7
100
AcDbLine
 10
-148.909945026655
 20
243.7241027675405
 30
0.0
 11
-149.909945026655
 21
243.7241027675405
 31
0.0
  0
LINE
  5
27E
330
1F
100
AcDbEntity
  8
0
  6
Continuous
 62
     7
100
AcDbLine
 10
-143.859945026655
 20
236.6596539828243
 30
0.0
 11
-143.859945026655
 21
238.0241027675405
 31
0.0
  0
LINE
  5
27F
330
1F
100
AcDbEntity
  8
0
  6
Continuous
 62
     7
100
AcDbLine
 10
-142.459945026655
 20
238.8025637366232
 30
0.0
 11
-142.459945026655
 21
238.2885515522567
 31
0.0
  0
LINE
  5
280
330
1F
100
AcDbEntity
  8
0
  6
Continuous
 62
     7
100
AcDbLine
 10
-142.459945026655
 20
238.2885515522567
 30
0.0
 11
-142.4599450266483
 21
236.9241027675406
 31
0.0
  0
LINE
  5
281
330
1F
100
AcDbEntity
  8
0
  6
Continuous
 62
     7
100
AcDbLine
 10
-142.4599450266483
 20
236.9241027675406
 30
0.0
 11
-142.2333138206164
 21
236.9241027675406
 31
0.0
  0
LINE
  5
282
330
1F
100
AcDbEntity
  8
0
  6
Continuous
 62
     7
100
AcDbLine
 10
-131.859945026655
 20
238.8025637366232
 30
0.0
 11
-131.859945026655
 21
238.2885515522567
 31
0.0
  0
LINE
  5
283
330
1F
100
AcDbEntity
  8
0
  6
Continuous
 62
     7
100
AcDbLine
 10
-131.859945026655
 20
238.2885515522567
 30
0.0
 11
-131.859945026655
 21
236.9241027675406
 31
0.0
  0
LINE
  5
284
330
1F
100
AcDbEntity
  8
0
  6
Continuous
 62
     7
100
AcDbLine
 10
-133.259945026655
 20
245.2885515522567
 30
0.0
 11
-133.259945026655
 21
245.8025637366232
 31
0.0
  0
LINE
  5
285
330
1F
100
AcDbEntity
  8
0
  6
Continuous
 62
     7
100
AcDbLine
 10
-133.2599450266618
 20
243.9241027675406
 30
0.0
 11
-133.259945026655
 21
245.2885515522567
 31
0.0
  0
LINE
  5
286
330
1F
100
AcDbEntity
  8
0
  6
Continuous
 62
     7
100
AcDbLine
 10
-133.259945026655
 20
252.1885515522567
 30
0.0
 11
-133.2599450266551
 21
252.7025637366233
 31
0.0
  0
LINE
  5
287
330
1F
100
AcDbEntity
  8
0
  6
Continuous
 62
     7
100
AcDbLine
 10
-133.2599450266618
 20
250.8241027675406
 30
0.0
 11
-133.259945026655
 21
252.1885515522567
 31
0.0
  0
LINE
  5
288
330
1F
100
AcDbEntity
  8
0
  6
Continuous
 62
     7
100
AcDbLine
 10
-137.159945026655
 20
245.8025637366232
 30
0.0
 11
-137.159945026655
 21
245.2885515522567
 31
0.0
  0
LINE
  5
289
330
1F
100
AcDbEntity
  8
0
  6
Continuous
 62
     7
100
AcDbLine
 10
-137.1599450266549
 20
252.7025637366233
 30
0.0
 11
-137.159945026655
 21
252.1885515522567
 31
0.0
  0
LINE
  5
28A
330
1F
100
AcDbEntity
  8
0
  6
Continuous
 62
     7
100
AcDbLine
 10
-137.159945026655
 20
252.1885515522567
 30
0.0
 11
-137.159945026655
 21
250.8241027675406
 31
0.0
  0
LINE
  5
28B
330
1F
100
AcDbEntity
  8
0
  6
Continuous
 62
     7
100
AcDbLine
 10
-143.859945026655
 20
236.1456417984579
 30
0.0
 11
-143.859945026655
 21
236.6596539828243
 31
0.0
  0
LINE
  5
28C
330
1F
100
AcDbEntity
  8
0
  6
Continuous
 62
     7
100
AcDbLine
 10
-149.909945026655
 20
238.2241027675405
 30
0.0
 11
-149.9099450266549
 21
232.5241027675405
 31
0.0
  0
LINE
  5
28D
330
1F
100
AcDbEntity
  8
0
  6
Continuous
 62
     7
100
AcDbLine
 10
-133.259945026655
 20
236.1456417984579
 30
0.0
 11
-133.259945026655
 21
236.6596539828243
 31
0.0
  0
LINE
  5
28E
330
1F
100
AcDbEntity
  8
0
  6
Continuous
 62
     7
100
AcDbLine
 10
-137.159945026655
 20
236.6596539828243
 30
0.0
 11
-137.159945026655
 21
236.1456417984579
 31
0.0
  0
LINE
  5
28F
330
1F
100
AcDbEntity
  8
0
  6
Continuous
 62
     7
100
AcDbLine
 10
-147.759945026655
 20
236.6596539828243
 30
0.0
 11
-147.759945026655
 21
236.1456417984579
 31
0.0
  0
LINE
  5
290
330
1F
100
AcDbEntity
  8
0
  6
Continuous
 62
     7
100
AcDbLine
 10
-137.159945026655
 20
238.0241027675405
 30
0.0
 11
-137.159945026655
 21
236.6596539828243
 31
0.0
  0
LINE
  5
291
330
1F
100
AcDbEntity
  8
0
  6
Continuous
 62
     7
100
AcDbLine
 10
-133.2599450266618
 20
238.0241027675405
 30
0.0
 11
-133.4865762326936
 21
238.0241027675405
 31
0.0
  0
LINE
  5
292
330
1F
100
AcDbEntity
  8
0
  6
Continuous
 62
     7
100
AcDbLine
 10
-136.9333138206164
 20
238.0241027675405
 30
0.0
 11
-137.159945026655
 21
238.0241027675405
 31
0.0
  0
LINE
  5
293
330
1F
100
AcDbEntity
  8
0
  6
Continuous
 62
     7
100
AcDbLine
 10
-143.859945026655
 20
238.0241027675405
 30
0.0
 11
-144.0865762326936
 21
238.0241027675405
 31
0.0
  0
LINE
  5
294
330
1F
100
AcDbEntity
  8
0
  6
Continuous
 62
     7
100
AcDbLine
 10
-128.1865762326936
 20
236.9241027675406
 30
0.0
 11
-127.959945026655
 21
236.9241027675406
 31
0.0
  0
LINE
  5
295
330
1F
100
AcDbEntity
  8
0
  6
Continuous
 62
     7
100
AcDbLine
 10
-131.859945026655
 20
236.9241027675406
 30
0.0
 11
-131.6333138206165
 21
236.9241027675406
 31
0.0
  0
LINE
  5
296
330
1F
100
AcDbEntity
  8
0
  6
Continuous
 62
     7
100
AcDbLine
 10
-138.7865762326935
 20
236.9241027675406
 30
0.0
 11
-138.559945026655
 21
236.9241027675406
 31
0.0
  0
LINE
  5
297
330
1F
100
AcDbEntity
  8
0
  6
Continuous
 62
     7
100
AcDbLine
 10
-147.5333138206164
 20
238.0241027675405
 30
0.0
 11
-147.7599450266482
 21
238.0241027675405
 31
0.0
  0
LINE
  5
298
330
1F
100
AcDbEntity
  8
0
  6
Continuous
 62
     7
100
AcDbLine
 10
-147.7599450266482
 20
238.0241027675405
 30
0.0
 11
-147.759945026655
 21
236.6596539828243
 31
0.0
  0
LINE
  5
299
330
1F
100
AcDbEntity
  8
1
  6
Continuous
 62
     7
100
AcDbLine
 10
-138.709945026655
 20
227.0741027675406
 30
0.0
 11
-138.2109871458268
 21
227.0741027675406
 31
0.0
  0
LINE
  5
29A
330
1F
100
AcDbEntity
  8
1
  6
Continuous
 62
     7
100
AcDbLine
 10
-138.2109871458268
 20
227.0741027675406
 30
0.0
 11
-138.2109871458268
 21
226.7741027675405
 31
0.0
  0
LINE
  5
29B
330
1F
100
AcDbEntity
  8
0
  6
Continuous
 62
     7
100
AcDbLine
 10
-138.2109871458268
 20
226.7741027675405
 30
0.0
 11
-132.209945026655
 21
226.7741027675405
 31
0.0
  0
LINE
  5
29C
330
1F
100
AcDbEntity
  8
1
  6
Continuous
 62
     7
100
AcDbLine
 10
-138.709945026655
 20
254.8741027675406
 30
0.0
 11
-138.2109871458268
 21
254.8741027675406
 31
0.0
  0
LINE
  5
29D
330
1F
100
AcDbEntity
  8
1
  6
Continuous
 62
     7
100
AcDbLine
 10
-138.2109871458268
 20
254.8741027675406
 30
0.0
 11
-138.2109871458268
 21
255.1741027675405
 31
0.0
  0
LINE
  5
29E
330
1F
100
AcDbEntity
  8
0
  6
Continuous
 62
     7
100
AcDbLine
 10
-138.2109871458268
 20
255.1741027675405
 30
0.0
 11
-132.209945026655
 21
255.1741027675405
 31
0.0
  0
LINE
  5
29F
330
1F
100
AcDbEntity
  8
1
  6
Continuous
 62
     7
100
AcDbLine
 10
-149.9099450266549
 20
252.5241027675405
 30
0.0
 11
-149.909945026655
 21
249.4241027675406
 31
0.0
  0
LINE
  5
2A0
330
1F
100
AcDbEntity
  8
1
  6
Continuous
 62
     7
100
AcDbLine
 10
-149.9099450266549
 20
232.5241027675405
 30
0.0
 11
-149.909945026655
 21
229.4241027675406
 31
0.0
  0
ARC
  5
2A1
102
{ACAD_REACTORS
330
3A3
102
}
330
1F
100
AcDbEntity
  8
1
  6
Continuous
 62
     7
100
AcDbCircle
 10
-19.72539976544874
 20
15.73121731203457
 30
0.0
 40
0.2649662124753284
100
AcDbArc
 50
30.00000000001384
 51
180.0
  0
ARC
  5
2A2
102
{ACAD_REACTORS
330
3A3
102
}
330
1F
100
AcDbEntity
  8
1
  6
Continuous
 62
     7
100
AcDbCircle
 10
-19.65703264459069
 20
10.84758507263291
 30
0.0
 40
0.3333333333333712
100
AcDbArc
 50
180.0
 51
0.0
  0
ARC
  5
2A3
102
{ACAD_REACTORS
330
3A3
102
}
330
1F
100
AcDbEntity
  8
1
  6
Continuous
 62
     7
100
AcDbCircle
 10
-16.99036597792394
 20
9.3082690706018
 30
0.0
 40
0.3333333333333819
100
AcDbArc
 50
180.0
 51
0.0
  0
ARC
  5
2A4
102
{ACAD_REACTORS
330
3A3
102
}
330
1F
100
AcDbEntity
  8
1
  6
Continuous
 62
     7
100
AcDbCircle
 10
-16.921998857066
 20
15.73121731203457
 30
0.0
 40
0.2649662124753114
100
AcDbArc
 50
0.0
 51
149.9999999999743
  0
ARC
  5
2A5
102
{ACAD_REACTORS
330
3A4
102
}
330
1F
100
AcDbEntity
  8
1
  6
Continuous
 62
     7
100
AcDbCircle
 10
-20.99036597792406
 20
14.92250016016737
 30
0.0
 40
0.3333333333333712
100
AcDbArc
 50
0.0
 51
180.0
  0
ARC
  5
2A6
102
{ACAD_REACTORS
330
3A4
102
}
330
1F
100
AcDbEntity
  8
1
  6
Continuous
 62
     7
100
AcDbCircle
 10
-18.65703264459069
 20
8.7313459936787
 30
0.0
 40
0.3333333333333673
100
AcDbArc
 50
240.0183606311504
 51
60.01836063115043
  0
ARC
  5
2A7
102
{ACAD_REACTORS
330
3A5
102
}
330
1F
100
AcDbEntity
  8
1
  6
Continuous
 62
     7
100
AcDbCircle
 10
-22.32369931125732
 20
14.15326939093666
 30
0.0
 40
0.3333333333332611
100
AcDbArc
 50
0.0
 51
180.0
  0
ARC
  5
2A8
102
{ACAD_REACTORS
330
3A5
102
}
330
1F
100
AcDbEntity
  8
1
  6
Continuous
 62
     7
100
AcDbCircle
 10
-22.32369931125732
 20
10.84673060906323
 30
0.0
 40
0.3333333333333677
100
AcDbArc
 50
180.0
 51
0.0
  0
ARC
  5
2A9
102
{ACAD_REACTORS
330
3A6
102
}
330
1F
100
AcDbEntity
  8
1
  6
Continuous
 62
     7
100
AcDbCircle
 10
-14.32369931125731
 20
14.15326939093666
 30
0.0
 40
0.3333333333333773
100
AcDbArc
 50
240.0183606311493
 51
60.01836063115717
  0
ARC
  5
2AA
102
{ACAD_REACTORS
330
3A6
102
}
330
1F
100
AcDbEntity
  8
1
  6
Continuous
 62
     7
100
AcDbCircle
 10
-14.32369931125731
 20
12.5
 30
0.0
 40
0.3333333333333695
100
AcDbArc
 50
270.0
 51
90.0
  0
ARC
  5
2AB
102
{ACAD_REACTORS
330
3A6
102
}
330
1F
100
AcDbEntity
  8
1
  6
Continuous
 62
     7
100
AcDbCircle
 10
-14.32369931125731
 20
10.84673060906323
 30
0.0
 40
0.3333333333333145
100
AcDbArc
 50
299.9816393688326
 51
119.9816393688413
  0
ARC
  5
2AC
330
1F
100
AcDbEntity
  8
0
  6
Continuous
 62
     7
100
AcDbCircle
 10
-79.03602267044491
 20
192.8965957437746
 30
0.0
 40
0.2000000000001876
100
AcDbArc
 50
90.0
 51
180.0
  0
ARC
  5
2AD
330
1F
100
AcDbEntity
  8
0
  6
Continuous
 62
     7
100
AcDbCircle
 10
-78.26102267044499
 20
192.8965957437746
 30
0.0
 40
0.2000000000001876
100
AcDbArc
 50
90.0
 51
180.0
  0
ARC
  5
2AE
330
1F
100
AcDbEntity
  8
0
  6
Continuous
 62
     7
100
AcDbCircle
 10
-51.13602267044499
 20
192.8965957437746
 30
0.0
 40
0.1999999999999886
100
AcDbArc
 50
0.0
 51
90.0
  0
ARC
  5
2AF
330
1F
100
AcDbEntity
  8
0
  6
Continuous
 62
     7
100
AcDbCircle
 10
-51.91102267044491
 20
192.8965957437746
 30
0.0
 40
0.2000000000000171
100
AcDbArc
 50
0.0
 51
90.0
  0
ARC
  5
2B0
330
1F
100
AcDbEntity
  8
0
  6
Continuous
 62
     7
100
AcDbCircle
 10
-146.1697280266551
 20
160.0965957437748
 30
0.0
 40
0.5
100
AcDbArc
 50
90.0
 51
180.0
  0
ARC
  5
2B1
330
1F
100
AcDbEntity
  8
0
  6
Continuous
 62
     7
100
AcDbCircle
 10
-138.9697280266551
 20
160.0965957437748
 30
0.0
 40
0.5
100
AcDbArc
 50
0.0
 51
90.0
  0
ARC
  5
2B2
330
1F
100
AcDbEntity
  8
0
  6
Continuous
 62
     7
100
AcDbCircle
 10
-131.4501620266549
 20
160.0965957437748
 30
0.0
 40
0.5
100
AcDbArc
 50
90.0
 51
180.0
  0
ARC
  5
2B3
330
1F
100
AcDbEntity
  8
0
  6
Continuous
 62
     7
100
AcDbCircle
 10
-124.2501620266548
 20
160.0965957437748
 30
0.0
 40
0.5
100
AcDbArc
 50
0.0
 51
90.0
  0
ARC
  5
2B4
330
1F
100
AcDbEntity
  8
0
  6
Continuous
 62
     7
100
AcDbCircle
 10
-143.9449668606467
 20
79.89278792244056
 30
0.0
 40
4.999999999999985
100
AcDbArc
 50
64.57192423925612
 51
90.0
  0
ARC
  5
2B5
330
1F
100
AcDbEntity
  8
0
  6
Continuous
 62
     7
100
AcDbCircle
 10
-140.5099450266551
 20
87.11778792244047
 30
0.0
 40
2.999999999999877
100
AcDbArc
 50
244.5719242392567
 51
295.4280757607463
  0
ARC
  5
2B6
330
1F
100
AcDbEntity
  8
0
  6
Continuous
 62
     7
100
AcDbCircle
 10
-137.0749231926632
 20
79.89278792244056
 30
0.0
 40
5.0
100
AcDbArc
 50
90.0
 51
115.4280757607451
  0
ARC
  5
2B7
330
1F
100
AcDbEntity
  8
0
  6
Continuous
 62
     7
100
AcDbCircle
 10
-145.809945026655
 20
88.61778792244047
 30
0.0
 40
3.150000000000016
100
AcDbArc
 50
157.0190801925366
 51
202.9809198074634
  0
ARC
  5
2B8
330
1F
100
AcDbEntity
  8
0
  6
Continuous
 62
     7
100
AcDbCircle
 10
-146.709945026655
 20
86.89278792244056
 30
0.0
 40
2.0
100
AcDbArc
 50
180.0
 51
270.0
  0
ARC
  5
2B9
330
1F
100
AcDbEntity
  8
0
  6
Continuous
 62
     7
100
AcDbCircle
 10
-129.909945026655
 20
87.11778792244047
 30
0.0
 40
2.999999999999913
100
AcDbArc
 50
244.5719242392551
 51
295.4280757607468
  0
ARC
  5
2BA
330
1F
100
AcDbEntity
  8
0
  6
Continuous
 62
     7
100
AcDbCircle
 10
-126.4749231926633
 20
79.89278792244056
 30
0.0
 40
5.0
100
AcDbArc
 50
90.0
 51
115.4280757607429
  0
ARC
  5
2BB
330
1F
100
AcDbEntity
  8
0
  6
Continuous
 62
     7
100
AcDbCircle
 10
-123.709945026655
 20
86.89278792244056
 30
0.0
 40
2.0
100
AcDbArc
 50
270.0
 51
0.0
  0
ARC
  5
2BC
330
1F
100
AcDbEntity
  8
0
  6
Continuous
 62
     7
100
AcDbCircle
 10
-124.609945026655
 20
88.61778792244047
 30
0.0
 40
3.150000000000003
100
AcDbArc
 50
337.0190801925365
 51
22.98091980746356
  0
ARC
  5
2BD
330
1F
100
AcDbEntity
  8
0
  6
Continuous
 62
     7
100
AcDbCircle
 10
-133.3449668606468
 20
79.89278792244056
 30
0.0
 40
5.000000000000021
100
AcDbArc
 50
64.57192423925524
 51
90.0
  0
ARC
  5
2BE
330
1F
100
AcDbEntity
  8
0
  6
Continuous
 62
     7
100
AcDbCircle
 10
-124.609945026655
 20
95.5177879224405
 30
0.0
 40
3.150000000000047
100
AcDbArc
 50
337.0190801925345
 51
22.9809198074626
  0
ARC
  5
2BF
330
1F
100
AcDbEntity
  8
0
  6
Continuous
 62
     7
100
AcDbCircle
 10
-124.609945026655
 20
101.0177879224405
 30
0.0
 40
3.150000000000047
100
AcDbArc
 50
337.0190801925345
 51
22.98091980746332
  0
ARC
  5
2C0
330
1F
100
AcDbEntity
  8
0
  6
Continuous
 62
     7
100
AcDbCircle
 10
-124.609945026655
 20
107.9177879224405
 30
0.0
 40
3.14999999999992
100
AcDbArc
 50
337.01908019254
 51
22.98091980746165
  0
ARC
  5
2C1
330
1F
100
AcDbEntity
  8
0
  6
Continuous
 62
     7
100
AcDbCircle
 10
-137.0749231926632
 20
116.6427879224406
 30
0.0
 40
5.000000000000034
100
AcDbArc
 50
244.5719242392549
 51
270.0
  0
ARC
  5
2C2
330
1F
100
AcDbEntity
  8
0
  6
Continuous
 62
     7
100
AcDbCircle
 10
-143.9449668606467
 20
116.6427879224406
 30
0.0
 40
5.0
100
AcDbArc
 50
270.0
 51
295.4280757607427
  0
ARC
  5
2C3
330
1F
100
AcDbEntity
  8
0
  6
Continuous
 62
     7
100
AcDbCircle
 10
-140.5099450266551
 20
109.4177879224405
 30
0.0
 40
3.00000000000013
100
AcDbArc
 50
64.57192423925534
 51
115.4280757607437
  0
ARC
  5
2C4
330
1F
100
AcDbEntity
  8
0
  6
Continuous
 62
     7
100
AcDbCircle
 10
-123.709945026655
 20
109.6427879224406
 30
0.0
 40
2.0
100
AcDbArc
 50
0.0
 51
90.0
  0
ARC
  5
2C5
330
1F
100
AcDbEntity
  8
0
  6
Continuous
 62
     7
100
AcDbCircle
 10
-126.4749231926633
 20
116.6427879224406
 30
0.0
 40
5.000000000000028
100
AcDbArc
 50
244.5719242392551
 51
270.0
  0
ARC
  5
2C6
330
1F
100
AcDbEntity
  8
0
  6
Continuous
 62
     7
100
AcDbCircle
 10
-129.909945026655
 20
109.4177879224405
 30
0.0
 40
3.000000000000057
100
AcDbArc
 50
64.57192423925828
 51
115.4280757607432
  0
ARC
  5
2C7
330
1F
100
AcDbEntity
  8
0
  6
Continuous
 62
     7
100
AcDbCircle
 10
-133.3449668606468
 20
116.6427879224406
 30
0.0
 40
5.0
100
AcDbArc
 50
270.0
 51
295.4280757607448
  0
ARC
  5
2C8
330
1F
100
AcDbEntity
  8
0
  6
Continuous
 62
     7
100
AcDbCircle
 10
-146.709945026655
 20
109.6427879224406
 30
0.0
 40
2.0
100
AcDbArc
 50
90.0
 51
180.0
  0
ARC
  5
2C9
330
1F
100
AcDbEntity
  8
0
  6
Continuous
 62
     7
100
AcDbCircle
 10
-145.809945026655
 20
107.9177879224405
 30
0.0
 40
3.149999999999971
100
AcDbArc
 50
157.0190801925384
 51
202.9809198074599
  0
ARC
  5
2CA
330
1F
100
AcDbEntity
  8
0
  6
Continuous
 62
     7
100
AcDbCircle
 10
-145.809945026655
 20
101.0177879224405
 30
0.0
 40
3.15000000000001
100
AcDbArc
 50
157.0190801925368
 51
202.9809198074653
  0
ARC
  5
2CB
330
1F
100
AcDbEntity
  8
0
  6
Continuous
 62
     7
100
AcDbCircle
 10
-145.809945026655
 20
95.5177879224405
 30
0.0
 40
3.149999999999993
100
AcDbArc
 50
157.0190801925375
 51
202.9809198074653
  0
ARC
  5
2CC
330
1F
100
AcDbEntity
  8
0
  6
Continuous
 62
     7
100
AcDbCircle
 10
-129.909945026655
 20
245.2241027675405
 30
0.0
 40
2.849999999999963
100
AcDbArc
 50
226.8264488927407
 51
313.1735511072595
  0
ARC
  5
2CD
330
1F
100
AcDbEntity
  8
0
  6
Continuous
 62
     7
100
AcDbCircle
 10
-129.909945026655
 20
236.7241027675405
 30
0.0
 40
2.850000000000035
100
AcDbArc
 50
46.82644889274166
 51
133.1735511072581
  0
ARC
  5
2CE
330
1F
100
AcDbEntity
  8
0
  6
Continuous
 62
     7
100
AcDbCircle
 10
-135.209945026655
 20
243.1241027675405
 30
0.0
 40
1.900000000000019
100
AcDbArc
 50
24.90106237036991
 51
155.0989376296305
  0
ARC
  5
2CF
330
1F
100
AcDbEntity
  8
0
  6
Continuous
 62
     7
100
AcDbCircle
 10
-124.609945026655
 20
243.1241027675405
 30
0.0
 40
1.900000000000032
100
AcDbArc
 50
24.90106237036973
 51
155.0989376296303
  0
ARC
  5
2D0
330
1F
100
AcDbEntity
  8
0
  6
Continuous
 62
     7
100
AcDbCircle
 10
-140.509945026655
 20
245.8241027675406
 30
0.0
 40
1.900000000000019
100
AcDbArc
 50
204.9010623703699
 51
335.0989376296315
  0
ARC
  5
2D1
330
1F
100
AcDbEntity
  8
0
  6
Continuous
 62
     7
100
AcDbCircle
 10
-145.809945026655
 20
243.1241027675405
 30
0.0
 40
1.900000000000019
100
AcDbArc
 50
24.90106237036991
 51
155.0989376296305
  0
ARC
  5
2D2
330
1F
100
AcDbEntity
  8
0
  6
Continuous
 62
     7
100
AcDbCircle
 10
-140.509945026655
 20
236.7241027675405
 30
0.0
 40
2.850000000000045
100
AcDbArc
 50
46.82644889274145
 51
133.1735511072581
  0
ARC
  5
2D3
330
1F
100
AcDbEntity
  8
0
  6
Continuous
 62
     7
100
AcDbCircle
 10
-124.609945026655
 20
243.7241027675405
 30
0.0
 40
2.500000000000004
100
AcDbArc
 50
141.2605754021443
 51
38.73942459785569
  0
ARC
  5
2D4
330
1F
100
AcDbEntity
  8
0
  6
Continuous
 62
     7
100
AcDbCircle
 10
-124.609945026655
 20
250.6241027675405
 30
0.0
 40
2.500000000000004
100
AcDbArc
 50
141.2605754021443
 51
38.73942459785569
  0
ARC
  5
2D5
330
1F
100
AcDbEntity
  8
0
  6
Continuous
 62
     7
100
AcDbCircle
 10
-124.609945026655
 20
250.6241027675405
 30
0.0
 40
2.850000000000097
100
AcDbArc
 50
46.82644889274284
 51
133.1735511072557
  0
ARC
  5
2D6
330
1F
100
AcDbEntity
  8
0
  6
Continuous
 62
     7
100
AcDbCircle
 10
-145.809945026655
 20
250.6241027675405
 30
0.0
 40
2.850000000000025
100
AcDbArc
 50
46.82644889274187
 51
133.1735511072586
  0
ARC
  5
2D7
330
1F
100
AcDbEntity
  8
0
  6
Continuous
 62
     7
100
AcDbCircle
 10
-140.509945026655
 20
252.1241027675405
 30
0.0
 40
2.849999999999963
100
AcDbArc
 50
226.8264488927407
 51
313.1735511072598
  0
ARC
  5
2D8
330
1F
100
AcDbEntity
  8
0
  6
Continuous
 62
     7
100
AcDbCircle
 10
-129.909945026655
 20
252.1241027675405
 30
0.0
 40
2.849999999999963
100
AcDbArc
 50
226.8264488927407
 51
313.1735511072595
  0
ARC
  5
2D9
330
1F
100
AcDbEntity
  8
0
  6
Continuous
 62
     7
100
AcDbCircle
 10
-135.209945026655
 20
250.0241027675405
 30
0.0
 40
1.900000000000019
100
AcDbArc
 50
24.90106237036991
 51
155.0989376296305
  0
ARC
  5
2DA
330
1F
100
AcDbEntity
  8
0
  6
Continuous
 62
     7
100
AcDbCircle
 10
-124.609945026655
 20
250.0241027675405
 30
0.0
 40
1.900000000000032
100
AcDbArc
 50
24.90106237036973
 51
155.0989376296303
  0
ARC
  5
2DB
330
1F
100
AcDbEntity
  8
0
  6
Continuous
 62
     7
100
AcDbCircle
 10
-140.509945026655
 20
252.7241027675405
 30
0.0
 40
1.899999999999935
100
AcDbArc
 50
204.9010623703645
 51
335.098937629637
  0
ARC
  5
2DC
330
1F
100
AcDbEntity
  8
0
  6
Continuous
 62
     7
100
AcDbCircle
 10
-129.909945026655
 20
252.7241027675405
 30
0.0
 40
1.900000000000038
100
AcDbArc
 50
204.901062370363
 51
335.0989376296359
  0
ARC
  5
2DD
330
1F
100
AcDbEntity
  8
0
  6
Continuous
 62
     7
100
AcDbCircle
 10
-145.809945026655
 20
250.0241027675405
 30
0.0
 40
1.900000000001101
100
AcDbArc
 50
24.90106237035475
 51
155.0989376296305
  0
ARC
  5
2DE
330
1F
100
AcDbEntity
  8
0
  6
Continuous
 62
     7
100
AcDbCircle
 10
-140.509945026655
 20
252.1241027675405
 30
0.0
 40
2.499999999999962
100
AcDbArc
 50
321.2605754021461
 51
218.7394245978543
  0
ARC
  5
2DF
330
1F
100
AcDbEntity
  8
0
  6
Continuous
 62
     7
100
AcDbCircle
 10
-129.909945026655
 20
252.1241027675405
 30
0.0
 40
2.499999999999951
100
AcDbArc
 50
321.2605754021458
 51
218.7394245978543
  0
ARC
  5
2E0
330
1F
100
AcDbEntity
  8
0
  6
Continuous
 62
     7
100
AcDbCircle
 10
-145.809945026655
 20
250.6241027675405
 30
0.0
 40
2.500000000000016
100
AcDbArc
 50
141.2605754021445
 51
38.73942459785589
  0
ARC
  5
2E1
330
1F
100
AcDbEntity
  8
0
  6
Continuous
 62
     7
100
AcDbCircle
 10
-129.909945026655
 20
252.1241027675405
 30
0.0
 40
3.000000000000053
100
AcDbArc
 50
66.4435356909005
 51
113.556464309101
  0
ARC
  5
2E2
330
1F
100
AcDbEntity
  8
0
  6
Continuous
 62
     7
100
AcDbCircle
 10
-129.909945026655
 20
245.2241027675405
 30
0.0
 40
2.500000000000004
100
AcDbArc
 50
321.2605754021444
 51
218.7394245978559
  0
ARC
  5
2E3
330
1F
100
AcDbEntity
  8
0
  6
Continuous
 62
     7
100
AcDbCircle
 10
-129.909945026655
 20
245.8241027675406
 30
0.0
 40
1.900000000000122
100
AcDbArc
 50
204.9010623703685
 51
335.0989376296305
  0
ARC
  5
2E4
330
1F
100
AcDbEntity
  8
0
  6
Continuous
 62
     7
100
AcDbCircle
 10
-145.809945026655
 20
243.7241027675405
 30
0.0
 40
2.850000000000025
100
AcDbArc
 50
46.82644889274187
 51
133.1735511072586
  0
ARC
  5
2E5
330
1F
100
AcDbEntity
  8
0
  6
Continuous
 62
     7
100
AcDbCircle
 10
-124.609945026655
 20
243.7241027675405
 30
0.0
 40
2.850000000000035
100
AcDbArc
 50
46.82644889274166
 51
133.1735511072583
  0
ARC
  5
2E6
330
1F
100
AcDbEntity
  8
0
  6
Continuous
 62
     7
100
AcDbCircle
 10
-140.509945026655
 20
245.2241027675405
 30
0.0
 40
2.500000000000016
100
AcDbArc
 50
321.2605754021445
 51
218.7394245978559
  0
ARC
  5
2E7
330
1F
100
AcDbEntity
  8
0
  6
Continuous
 62
     7
100
AcDbCircle
 10
-140.509945026655
 20
252.1241027675405
 30
0.0
 40
3.000000000000087
100
AcDbArc
 50
66.44353569089903
 51
113.556464309099
  0
ARC
  5
2E8
330
1F
100
AcDbEntity
  8
0
  6
Continuous
 62
     7
100
AcDbCircle
 10
-145.809945026655
 20
231.3241027675405
 30
0.0
 40
2.499999999999994
100
AcDbArc
 50
321.2605754021441
 51
218.7394245978555
  0
ARC
  5
2E9
330
1F
100
AcDbEntity
  8
0
  6
Continuous
 62
     7
100
AcDbCircle
 10
-135.209945026655
 20
231.9241027675406
 30
0.0
 40
1.900000000000045
100
AcDbArc
 50
204.9010623703695
 51
335.0989376296301
  0
ARC
  5
2EA
330
1F
100
AcDbEntity
  8
0
  6
Continuous
 62
     7
100
AcDbCircle
 10
-145.809945026655
 20
231.9241027675406
 30
0.0
 40
1.900000000000045
100
AcDbArc
 50
204.9010623703695
 51
335.0989376296301
  0
ARC
  5
2EB
330
1F
100
AcDbEntity
  8
0
  6
Continuous
 62
     7
100
AcDbCircle
 10
-140.509945026655
 20
229.2241027675405
 30
0.0
 40
1.900000000000086
100
AcDbArc
 50
24.90106237036614
 51
155.0989376296324
  0
ARC
  5
2EC
330
1F
100
AcDbEntity
  8
0
  6
Continuous
 62
     7
100
AcDbCircle
 10
-140.509945026655
 20
229.8241027675405
 30
0.0
 40
2.99999999999986
100
AcDbArc
 50
246.4435356908995
 51
293.5564643091025
  0
ARC
  5
2ED
330
1F
100
AcDbEntity
  8
0
  6
Continuous
 62
     7
100
AcDbCircle
 10
-135.209945026655
 20
231.3241027675405
 30
0.0
 40
2.849999999999967
100
AcDbArc
 50
226.8264488927431
 51
313.1735511072569
  0
ARC
  5
2EE
330
1F
100
AcDbEntity
  8
0
  6
Continuous
 62
     7
100
AcDbCircle
 10
-145.809945026655
 20
231.3241027675405
 30
0.0
 40
2.849999999999962
100
AcDbArc
 50
226.8264488927399
 51
313.1735511072597
  0
ARC
  5
2EF
330
1F
100
AcDbEntity
  8
0
  6
Continuous
 62
     7
100
AcDbCircle
 10
-140.509945026655
 20
229.8241027675405
 30
0.0
 40
2.850000000000045
100
AcDbArc
 50
46.82644889274145
 51
133.1735511072581
  0
ARC
  5
2F0
330
1F
100
AcDbEntity
  8
0
  6
Continuous
 62
     7
100
AcDbCircle
 10
-140.509945026655
 20
229.8241027675405
 30
0.0
 40
2.500000000000065
100
AcDbArc
 50
141.2605754021421
 51
38.73942459785751
  0
ARC
  5
2F1
330
1F
100
AcDbEntity
  8
0
  6
Continuous
 62
     7
100
AcDbCircle
 10
-129.909945026655
 20
229.8241027675405
 30
0.0
 40
2.500000000000065
100
AcDbArc
 50
141.2605754021421
 51
38.73942459785771
  0
ARC
  5
2F2
330
1F
100
AcDbEntity
  8
0
  6
Continuous
 62
     7
100
AcDbCircle
 10
-129.909945026655
 20
229.8241027675405
 30
0.0
 40
2.850000000000035
100
AcDbArc
 50
46.82644889274166
 51
133.1735511072593
  0
ARC
  5
2F3
330
1F
100
AcDbEntity
  8
0
  6
Continuous
 62
     7
100
AcDbCircle
 10
-129.909945026655
 20
229.8241027675405
 30
0.0
 40
2.999999999999905
100
AcDbArc
 50
246.4435356908975
 51
293.5564643091025
  0
ARC
  5
2F4
330
1F
100
AcDbEntity
  8
0
  6
Continuous
 62
     7
100
AcDbCircle
 10
-124.609945026655
 20
238.8241027675406
 30
0.0
 40
1.900000000000032
100
AcDbArc
 50
204.9010623703697
 51
335.0989376296303
  0
ARC
  5
2F5
330
1F
100
AcDbEntity
  8
0
  6
Continuous
 62
     7
100
AcDbCircle
 10
-129.909945026655
 20
229.2241027675405
 30
0.0
 40
1.900000000000009
100
AcDbArc
 50
24.90106237036722
 51
155.0989376296339
  0
ARC
  5
2F6
330
1F
100
AcDbEntity
  8
0
  6
Continuous
 62
     7
100
AcDbCircle
 10
-124.609945026655
 20
231.9241027675406
 30
0.0
 40
1.900000000000032
100
AcDbArc
 50
204.9010623703697
 51
335.0989376296303
  0
ARC
  5
2F7
330
1F
100
AcDbEntity
  8
0
  6
Continuous
 62
     7
100
AcDbCircle
 10
-124.609945026655
 20
231.3241027675405
 30
0.0
 40
2.849999999999953
100
AcDbArc
 50
226.8264488927401
 51
313.1735511072599
  0
ARC
  5
2F8
330
1F
100
AcDbEntity
  8
0
  6
Continuous
 62
     7
100
AcDbCircle
 10
-124.609945026655
 20
238.2241027675405
 30
0.0
 40
2.849999999999973
100
AcDbArc
 50
226.8264488927405
 51
313.1735511072595
  0
ARC
  5
2F9
330
1F
100
AcDbEntity
  8
0
  6
Continuous
 62
     7
100
AcDbCircle
 10
-124.609945026655
 20
231.3241027675405
 30
0.0
 40
2.500000000000004
100
AcDbArc
 50
321.2605754021444
 51
218.7394245978557
  0
ARC
  5
2FA
330
1F
100
AcDbEntity
  8
0
  6
Continuous
 62
     7
100
AcDbCircle
 10
-129.909945026655
 20
236.7241027675405
 30
0.0
 40
2.499999999999994
100
AcDbArc
 50
141.2605754021441
 51
38.73942459785569
  0
ARC
  5
2FB
330
1F
100
AcDbEntity
  8
0
  6
Continuous
 62
     7
100
AcDbCircle
 10
-124.609945026655
 20
238.2241027675405
 30
0.0
 40
2.500000000000004
100
AcDbArc
 50
321.2605754021444
 51
218.7394245978557
  0
ARC
  5
2FC
330
1F
100
AcDbEntity
  8
0
  6
Continuous
 62
     7
100
AcDbCircle
 10
-145.809945026655
 20
243.7241027675405
 30
0.0
 40
2.500000000000016
100
AcDbArc
 50
141.2605754021445
 51
38.73942459785589
  0
ARC
  5
2FD
330
1F
100
AcDbEntity
  8
0
  6
Continuous
 62
     7
100
AcDbCircle
 10
-140.509945026655
 20
236.1241027675405
 30
0.0
 40
1.900000000000122
100
AcDbArc
 50
24.90106237036847
 51
155.0989376296301
  0
ARC
  5
2FE
330
1F
100
AcDbEntity
  8
0
  6
Continuous
 62
     7
100
AcDbCircle
 10
-135.209945026655
 20
238.8241027675406
 30
0.0
 40
1.900000000000045
100
AcDbArc
 50
204.9010623703695
 51
335.0989376296301
  0
ARC
  5
2FF
330
1F
100
AcDbEntity
  8
0
  6
Continuous
 62
     7
100
AcDbCircle
 10
-140.509945026655
 20
245.2241027675405
 30
0.0
 40
2.849999999999967
100
AcDbArc
 50
226.8264488927431
 51
313.1735511072586
  0
ARC
  5
300
330
1F
100
AcDbEntity
  8
0
  6
Continuous
 62
     7
100
AcDbCircle
 10
-145.809945026655
 20
238.2241027675405
 30
0.0
 40
2.499999999999994
100
AcDbArc
 50
321.2605754021441
 51
218.7394245978555
  0
ARC
  5
301
330
1F
100
AcDbEntity
  8
0
  6
Continuous
 62
     7
100
AcDbCircle
 10
-135.209945026655
 20
238.2241027675405
 30
0.0
 40
2.499999999999994
100
AcDbArc
 50
321.2605754021441
 51
218.7394245978555
  0
ARC
  5
302
330
1F
100
AcDbEntity
  8
0
  6
Continuous
 62
     7
100
AcDbCircle
 10
-135.209945026655
 20
243.7241027675405
 30
0.0
 40
2.500000000000016
100
AcDbArc
 50
141.2605754021445
 51
38.73942459785589
  0
ARC
  5
303
330
1F
100
AcDbEntity
  8
0
  6
Continuous
 62
     7
100
AcDbCircle
 10
-135.209945026655
 20
243.7241027675405
 30
0.0
 40
2.850000000000025
100
AcDbArc
 50
46.82644889274187
 51
133.1735511072586
  0
ARC
  5
304
330
1F
100
AcDbEntity
  8
0
  6
Continuous
 62
     7
100
AcDbCircle
 10
-135.209945026655
 20
250.6241027675405
 30
0.0
 40
2.500000000000016
100
AcDbArc
 50
141.2605754021445
 51
38.73942459785589
  0
ARC
  5
305
330
1F
100
AcDbEntity
  8
0
  6
Continuous
 62
     7
100
AcDbCircle
 10
-135.209945026655
 20
250.6241027675405
 30
0.0
 40
2.850000000000029
100
AcDbArc
 50
46.82644889274429
 51
133.1735511072557
  0
ARC
  5
306
330
1F
100
AcDbEntity
  8
0
  6
Continuous
 62
     7
100
AcDbCircle
 10
-135.209945026655
 20
231.3241027675405
 30
0.0
 40
2.499999999999994
100
AcDbArc
 50
321.2605754021441
 51
218.7394245978555
  0
ARC
  5
307
330
1F
100
AcDbEntity
  8
0
  6
Continuous
 62
     7
100
AcDbCircle
 10
-145.809945026655
 20
238.2241027675405
 30
0.0
 40
2.849999999999983
100
AcDbArc
 50
226.8264488927403
 51
313.1735511072594
  0
ARC
  5
308
330
1F
100
AcDbEntity
  8
0
  6
Continuous
 62
     7
100
AcDbCircle
 10
-129.909945026655
 20
236.1241027675405
 30
0.0
 40
1.900000000000045
100
AcDbArc
 50
24.90106237036955
 51
155.0989376296315
  0
ARC
  5
309
330
1F
100
AcDbEntity
  8
0
  6
Continuous
 62
     7
100
AcDbCircle
 10
-145.809945026655
 20
238.8241027675406
 30
0.0
 40
1.900000000000045
100
AcDbArc
 50
204.9010623703695
 51
335.0989376296301
  0
ARC
  5
30A
330
1F
100
AcDbEntity
  8
0
  6
Continuous
 62
     7
100
AcDbCircle
 10
-135.209945026655
 20
238.2241027675405
 30
0.0
 40
2.849999999999983
100
AcDbArc
 50
226.8264488927403
 51
313.1735511072594
  0
ARC
  5
30B
330
1F
100
AcDbEntity
  8
0
  6
Continuous
 62
     7
100
AcDbCircle
 10
-140.509945026655
 20
236.7241027675405
 30
0.0
 40
2.499999999999994
100
AcDbArc
 50
141.2605754021441
 51
38.73942459785548
  0
CIRCLE
  5
30C
330
1F
100
AcDbEntity
  8
0
  6
Continuous
 62
     7
100
AcDbCircle
 10
-145.809945026655
 20
243.7241027675405
 30
0.0
 40
1.300000000000011
  0
CIRCLE
  5
30D
330
1F
100
AcDbEntity
  8
0
  6
Continuous
 62
     7
100
AcDbCircle
 10
-145.809945026655
 20
250.6241027675405
 30
0.0
 40
1.300000000000011
  0
CIRCLE
  5
30E
330
1F
100
AcDbEntity
  8
0
  6
Continuous
 62
     7
100
AcDbCircle
 10
-145.809945026655
 20
238.2241027675405
 30
0.0
 40
1.299999999999983
  0
CIRCLE
  5
30F
330
1F
100
AcDbEntity
  8
0
  6
Continuous
 62
     7
100
AcDbCircle
 10
-140.509945026655
 20
236.7241027675405
 30
0.0
 40
1.300000000000011
  0
CIRCLE
  5
310
330
1F
100
AcDbEntity
  8
0
  6
Continuous
 62
     7
100
AcDbCircle
 10
-124.609945026655
 20
243.7241027675405
 30
0.0
 40
1.299999999999997
  0
CIRCLE
  5
311
330
1F
100
AcDbEntity
  8
0
  6
Continuous
 62
     7
100
AcDbCircle
 10
-124.609945026655
 20
231.3241027675405
 30
0.0
 40
1.299999999999997
  0
CIRCLE
  5
312
330
1F
100
AcDbEntity
  8
0
  6
Continuous
 62
     7
100
AcDbCircle
 10
-124.609945026655
 20
238.2241027675405
 30
0.0
 40
1.299999999999997
  0
CIRCLE
  5
313
330
1F
100
AcDbEntity
  8
0
  6
Continuous
 62
     7
100
AcDbCircle
 10
-124.609945026655
 20
250.6241027675405
 30
0.0
 40
1.299999999999997
  0
CIRCLE
  5
314
330
1F
100
AcDbEntity
  8
0
  6
Continuous
 62
     7
100
AcDbCircle
 10
-140.509945026655
 20
252.1241027675405
 30
0.0
 40
1.299999999999983
  0
CIRCLE
  5
315
330
1F
100
AcDbEntity
  8
0
  6
Continuous
 62
     7
100
AcDbCircle
 10
-140.509945026655
 20
245.2241027675405
 30
0.0
 40
1.299999999999983
  0
CIRCLE
  5
316
330
1F
100
AcDbEntity
  8
0
  6
Continuous
 62
     7
100
AcDbCircle
 10
-135.209945026655
 20
243.7241027675405
 30
0.0
 40
1.299999999999983
  0
CIRCLE
  5
317
330
1F
100
AcDbEntity
  8
0
  6
Continuous
 62
     7
100
AcDbCircle
 10
-129.909945026655
 20
252.1241027675405
 30
0.0
 40
1.300000000000011
  0
CIRCLE
  5
318
330
1F
100
AcDbEntity
  8
0
  6
Continuous
 62
     7
100
AcDbCircle
 10
-135.209945026655
 20
250.6241027675405
 30
0.0
 40
1.299999999999983
  0
CIRCLE
  5
319
330
1F
100
AcDbEntity
  8
0
  6
Continuous
 62
     7
100
AcDbCircle
 10
-129.909945026655
 20
245.2241027675405
 30
0.0
 40
1.300000000000011
  0
CIRCLE
  5
31A
330
1F
100
AcDbEntity
  8
0
  6
Continuous
 62
     7
100
AcDbCircle
 10
-135.209945026655
 20
238.2241027675405
 30
0.0
 40
1.299999999999983
  0
CIRCLE
  5
31B
330
1F
100
AcDbEntity
  8
0
  6
Continuous
 62
     7
100
AcDbCircle
 10
-135.209945026655
 20
231.3241027675405
 30
0.0
 40
1.299999999999983
  0
CIRCLE
  5
31C
330
1F
100
AcDbEntity
  8
0
  6
Continuous
 62
     7
100
AcDbCircle
 10
-145.809945026655
 20
231.3241027675405
 30
0.0
 40
1.300000000000011
  0
CIRCLE
  5
31D
330
1F
100
AcDbEntity
  8
0
  6
Continuous
 62
     7
100
AcDbCircle
 10
-140.509945026655
 20
229.8241027675405
 30
0.0
 40
1.300000000000011
  0
CIRCLE
  5
31E
330
1F
100
AcDbEntity
  8
0
  6
Continuous
 62
     7
100
AcDbCircle
 10
-129.909945026655
 20
236.7241027675405
 30
0.0
 40
1.299999999999983
  0
CIRCLE
  5
31F
330
1F
100
AcDbEntity
  8
0
  6
Continuous
 62
     7
100
AcDbCircle
 10
-129.909945026655
 20
229.8241027675405
 30
0.0
 40
1.299999999999983
  0
CIRCLE
  5
320
330
1F
100
AcDbEntity
  8
0
  6
Continuous
 62
     7
100
AcDbCircle
 10
-140.5099450266551
 20
102.5177879224405
 30
0.0
 40
2.150000000000091
  0
CIRCLE
  5
321
330
1F
100
AcDbEntity
  8
0
  6
Continuous
 62
     7
100
AcDbCircle
 10
-140.5099450266551
 20
94.0177879224405
 30
0.0
 40
2.150000000000091
  0
CIRCLE
  5
322
330
1F
100
AcDbEntity
  8
0
  6
Continuous
 62
     7
100
AcDbCircle
 10
-140.5099450266551
 20
87.11778792244047
 30
0.0
 40
2.150000000000091
  0
CIRCLE
  5
323
330
1F
100
AcDbEntity
  8
0
  6
Continuous
 62
     7
100
AcDbCircle
 10
-145.809945026655
 20
88.61778792244047
 30
0.0
 40
2.150000000000091
  0
CIRCLE
  5
324
330
1F
100
AcDbEntity
  8
0
  6
Continuous
 62
     7
100
AcDbCircle
 10
-129.909945026655
 20
94.0177879224405
 30
0.0
 40
2.150000000000006
  0
CIRCLE
  5
325
330
1F
100
AcDbEntity
  8
0
  6
Continuous
 62
     7
100
AcDbCircle
 10
-124.609945026655
 20
88.61778792244047
 30
0.0
 40
2.149999999999991
  0
CIRCLE
  5
326
330
1F
100
AcDbEntity
  8
0
  6
Continuous
 62
     7
100
AcDbCircle
 10
-124.609945026655
 20
88.61778792244047
 30
0.0
 40
1.299999999999898
  0
CIRCLE
  5
327
330
1F
100
AcDbEntity
  8
0
  6
Continuous
 62
     7
100
AcDbCircle
 10
-129.909945026655
 20
94.0177879224405
 30
0.0
 40
1.300000000000011
  0
CIRCLE
  5
328
330
1F
100
AcDbEntity
  8
0
  6
Continuous
 62
     7
100
AcDbCircle
 10
-135.209945026655
 20
95.5177879224405
 30
0.0
 40
1.300000000000097
  0
CIRCLE
  5
329
330
1F
100
AcDbEntity
  8
0
  6
Continuous
 62
     7
100
AcDbCircle
 10
-129.909945026655
 20
87.11778792244047
 30
0.0
 40
2.150000000000006
  0
CIRCLE
  5
32A
330
1F
100
AcDbEntity
  8
0
  6
Continuous
 62
     7
100
AcDbCircle
 10
-145.809945026655
 20
88.61778792244047
 30
0.0
 40
1.300000000000011
  0
CIRCLE
  5
32B
330
1F
100
AcDbEntity
  8
0
  6
Continuous
 62
     7
100
AcDbCircle
 10
-135.209945026655
 20
88.61778792244047
 30
0.0
 40
1.300000000000097
  0
CIRCLE
  5
32C
330
1F
100
AcDbEntity
  8
0
  6
Continuous
 62
     7
100
AcDbCircle
 10
-140.5099450266551
 20
87.11778792244047
 30
0.0
 40
1.299999999999898
  0
CIRCLE
  5
32D
330
1F
100
AcDbEntity
  8
0
  6
Continuous
 62
     7
100
AcDbCircle
 10
-129.909945026655
 20
87.11778792244047
 30
0.0
 40
1.300000000000011
  0
CIRCLE
  5
32E
330
1F
100
AcDbEntity
  8
0
  6
Continuous
 62
     7
100
AcDbCircle
 10
-135.209945026655
 20
95.5177879224405
 30
0.0
 40
2.150000000000006
  0
CIRCLE
  5
32F
330
1F
100
AcDbEntity
  8
0
  6
Continuous
 62
     7
100
AcDbCircle
 10
-135.209945026655
 20
88.61778792244047
 30
0.0
 40
2.150000000000006
  0
CIRCLE
  5
330
330
1F
100
AcDbEntity
  8
0
  6
Continuous
 62
     7
100
AcDbCircle
 10
-124.609945026655
 20
95.5177879224405
 30
0.0
 40
2.149999999999991
  0
CIRCLE
  5
331
330
1F
100
AcDbEntity
  8
0
  6
Continuous
 62
     7
100
AcDbCircle
 10
-124.609945026655
 20
95.5177879224405
 30
0.0
 40
1.299999999999997
  0
CIRCLE
  5
332
330
1F
100
AcDbEntity
  8
0
  6
Continuous
 62
     7
100
AcDbCircle
 10
-124.609945026655
 20
101.0177879224405
 30
0.0
 40
1.299999999999898
  0
CIRCLE
  5
333
330
1F
100
AcDbEntity
  8
0
  6
Continuous
 62
     7
100
AcDbCircle
 10
-124.609945026655
 20
107.9177879224405
 30
0.0
 40
1.299999999999898
  0
CIRCLE
  5
334
330
1F
100
AcDbEntity
  8
0
  6
Continuous
 62
     7
100
AcDbCircle
 10
-124.609945026655
 20
101.0177879224405
 30
0.0
 40
2.149999999999991
  0
CIRCLE
  5
335
330
1F
100
AcDbEntity
  8
0
  6
Continuous
 62
     7
100
AcDbCircle
 10
-135.209945026655
 20
101.0177879224405
 30
0.0
 40
2.150000000000006
  0
CIRCLE
  5
336
330
1F
100
AcDbEntity
  8
0
  6
Continuous
 62
     7
100
AcDbCircle
 10
-140.5099450266551
 20
109.4177879224405
 30
0.0
 40
2.150000000000091
  0
CIRCLE
  5
337
330
1F
100
AcDbEntity
  8
0
  6
Continuous
 62
     7
100
AcDbCircle
 10
-135.209945026655
 20
107.9177879224405
 30
0.0
 40
2.150000000000006
  0
CIRCLE
  5
338
330
1F
100
AcDbEntity
  8
0
  6
Continuous
 62
     7
100
AcDbCircle
 10
-129.909945026655
 20
102.5177879224405
 30
0.0
 40
2.150000000000006
  0
CIRCLE
  5
339
330
1F
100
AcDbEntity
  8
0
  6
Continuous
 62
     7
100
AcDbCircle
 10
-129.909945026655
 20
102.5177879224405
 30
0.0
 40
1.299999999999983
  0
CIRCLE
  5
33A
330
1F
100
AcDbEntity
  8
0
  6
Continuous
 62
     7
100
AcDbCircle
 10
-135.209945026655
 20
107.9177879224405
 30
0.0
 40
1.300000000000097
  0
CIRCLE
  5
33B
330
1F
100
AcDbEntity
  8
0
  6
Continuous
 62
     7
100
AcDbCircle
 10
-129.909945026655
 20
109.4177879224405
 30
0.0
 40
2.150000000000006
  0
CIRCLE
  5
33C
330
1F
100
AcDbEntity
  8
0
  6
Continuous
 62
     7
100
AcDbCircle
 10
-129.909945026655
 20
109.4177879224405
 30
0.0
 40
1.299999999999983
  0
CIRCLE
  5
33D
330
1F
100
AcDbEntity
  8
0
  6
Continuous
 62
     7
100
AcDbCircle
 10
-135.209945026655
 20
101.0177879224405
 30
0.0
 40
1.300000000000097
  0
CIRCLE
  5
33E
330
1F
100
AcDbEntity
  8
0
  6
Continuous
 62
     7
100
AcDbCircle
 10
-124.609945026655
 20
107.9177879224405
 30
0.0
 40
2.149999999999991
  0
CIRCLE
  5
33F
330
1F
100
AcDbEntity
  8
0
  6
Continuous
 62
     7
100
AcDbCircle
 10
-145.809945026655
 20
101.0177879224405
 30
0.0
 40
2.150000000000091
  0
CIRCLE
  5
340
330
1F
100
AcDbEntity
  8
0
  6
Continuous
 62
     7
100
AcDbCircle
 10
-140.5099450266551
 20
94.0177879224405
 30
0.0
 40
1.299999999999898
  0
CIRCLE
  5
341
330
1F
100
AcDbEntity
  8
0
  6
Continuous
 62
     7
100
AcDbCircle
 10
-145.809945026655
 20
95.5177879224405
 30
0.0
 40
1.300000000000011
  0
CIRCLE
  5
342
330
1F
100
AcDbEntity
  8
0
  6
Continuous
 62
     7
100
AcDbCircle
 10
-145.809945026655
 20
101.0177879224405
 30
0.0
 40
1.299999999999983
  0
CIRCLE
  5
343
330
1F
100
AcDbEntity
  8
0
  6
Continuous
 62
     7
100
AcDbCircle
 10
-140.5099450266551
 20
102.5177879224405
 30
0.0
 40
1.300000000000097
  0
CIRCLE
  5
344
330
1F
100
AcDbEntity
  8
0
  6
Continuous
 62
     7
100
AcDbCircle
 10
-140.5099450266551
 20
109.4177879224405
 30
0.0
 40
1.300000000000097
  0
CIRCLE
  5
345
330
1F
100
AcDbEntity
  8
0
  6
Continuous
 62
     7
100
AcDbCircle
 10
-145.809945026655
 20
107.9177879224405
 30
0.0
 40
1.300000000000011
  0
CIRCLE
  5
346
330
1F
100
AcDbEntity
  8
0
  6
Continuous
 62
     7
100
AcDbCircle
 10
-145.809945026655
 20
95.5177879224405
 30
0.0
 40
2.150000000000091
  0
CIRCLE
  5
347
330
1F
100
AcDbEntity
  8
0
  6
Continuous
 62
     7
100
AcDbCircle
 10
-145.809945026655
 20
107.9177879224405
 30
0.0
 40
2.150000000000091
  0
SPLINE
  5
348
330
1F
100
AcDbEntity
  8
0
  6
Continuous
 62
     7
100
AcDbSpline
210
0.0
220
0.0
230
1.0
 70
     8
 71
     3
 72
    19
 73
    15
 74
    13
 42
0.000000001
 43
0.0000000001
 44
0.00000001
 40
0.0
 40
0.0
 40
0.0
 40
0.0
 40
0.0295493824098512
 40
0.0584967229306764
 40
0.0842815945250223
 40
0.1038287855252753
 40
0.1264789041388011
 40
0.143059069437737
 40
0.1612219120803474
 40
0.1739185946624582
 40
0.1870365015246224
 40
0.1955443247444392
 40
0.2032554438736657
 40
0.2105765467613267
 40
0.2105765467613267
 40
0.2105765467613267
 40
0.2105765467613267
 10
-63.56586005806989
 20
192.8965957437746
 30
0.0
 10
-63.56577529658274
 20
192.9064459273394
 30
0.0
 10
-63.56560750959345
 20
192.9259456060399
 30
0.0
 10
-63.5642823086914
 20
192.9540149650682
 30
0.0
 10
-63.56238882301899
 20
192.978706043777
 30
0.0
 10
-63.55995494054649
 20
193.0012382086288
 30
0.0
 10
-63.55720157800837
 20
193.0206433677157
 30
0.0
 10
-63.5537352480597
 20
193.0394593571893
 30
0.0
 10
-63.55013334327268
 20
193.0548761666204
 30
0.0
 10
-63.54586272968803
 20
193.0688880437936
 30
0.0
 10
-63.54165790036758
 20
193.0796144590369
 30
0.0
 10
-63.53683642252821
 20
193.0880249625433
 30
0.0
 10
-63.53188456962
 20
193.0945664403585
 30
0.0
 10
-63.52692469493958
 20
193.0959311072526
 30
0.0
 10
-63.5245091028454
 20
193.0965957437748
 30
0.0
 11
-63.56586005806989
 21
192.8965957437746
 31
0.0
 11
-63.56541389060848
 21
192.9261417498254
 31
0.0
 11
-63.56408303101509
 21
192.9550584810452
 31
0.0
 11
-63.5620785931375
 21
192.9807653251044
 31
0.0
 11
-63.55996603973111
 21
193.0001980241518
 31
0.0
 11
-63.55674000236291
 21
193.0226172246639
 31
0.0
 11
-63.55370795190709
 21
193.0389177935945
 31
0.0
 11
-63.54949186484713
 21
193.0565845266026
 31
0.0
 11
-63.54574500895859
 21
193.0687157595696
 31
0.0
 11
-63.54076019436323
 21
193.0808496415442
 31
0.0
 11
-63.53650014481801
 21
193.0882140847149
 31
0.0
 11
-63.5313294713594
 21
193.0939347020214
 31
0.0
 11
-63.5245091028454
 21
193.0965957437748
 31
0.0
  0
SPLINE
  5
349
330
1F
100
AcDbEntity
  8
0
  6
Continuous
 62
     7
100
AcDbSpline
210
0.0
220
0.0
230
1.0
 70
     8
 71
     3
 72
    19
 73
    15
 74
    13
 42
0.000000001
 43
0.0000000001
 44
0.00000001
 40
0.0
 40
0.0
 40
0.0
 40
0.0
 40
0.0256599472696133
 40
0.0584965801930604
 40
0.0793148095511096
 40
0.1038285847413421
 40
0.1264787033563202
 40
0.143058868659299
 40
0.1579888907353532
 40
0.1739179319899724
 40
0.1859065365902606
 40
0.1955431001859777
 40
0.2041780359262567
 40
0.2105971868745481
 40
0.2105971868745481
 40
0.2105971868745481
 40
0.2105971868745481
 10
-61.10618528282001
 20
192.8965957437746
 30
0.0
 10
-61.10625051315132
 20
192.9051492244124
 30
0.0
 10
-61.1063992079923
 20
192.9246484604801
 30
0.0
 10
-61.10758943390356
 20
192.951068253737
 30
0.0
 10
-61.10951130924255
 20
192.9770553020734
 30
0.0
 10
-61.11185780576629
 20
192.9995988489839
 30
0.0
 10
-61.1148443015789
 20
193.0206428360588
 30
0.0
 10
-61.11811336915007
 20
193.0384007707551
 30
0.0
 10
-61.12165327137835
 20
193.0538244396645
 30
0.0
 10
-61.12567754153162
 20
193.0675202814223
 30
0.0
 10
-61.13024878952579
 20
193.0792595259717
 30
0.0
 10
-61.13510750629946
 20
193.0879714383496
 30
0.0
 10
-61.14041695974613
 20
193.0948578180147
 30
0.0
 10
-61.14540802191689
 20
193.0960762085925
 30
0.0
 10
-61.14753623804441
 20
193.0965957437748
 30
0.0
 11
-61.10618528282001
 21
192.8965957437746
 31
0.0
 11
-61.10652126966927
 21
192.9222534833234
 31
0.0
 11
-61.10796230987481
 21
192.9550584810452
 31
0.0
 11
-61.10951539291336
 21
192.9758186979575
 31
0.0
 11
-61.11207930115879
 21
193.0001980241518
 31
0.0
 11
-61.11530533852671
 21
193.022617224662
 31
0.0
 11
-61.1183373889827
 21
193.0389177935945
 31
0.0
 11
-61.12171814586769
 21
193.0534600092837
 31
0.0
 11
-61.1263003319313
 21
193.0687157595696
 31
0.0
 11
-61.13079324267341
 21
193.0798306317426
 31
0.0
 11
-61.13554519607189
 21
193.0882140847149
 31
0.0
 11
-61.1414704748835
 21
193.0944952587311
 31
0.0
 11
-61.14753623804441
 21
193.0965957437748
 31
0.0
  0
SPLINE
  5
34A
330
1F
100
AcDbEntity
  8
0
  6
Continuous
 62
     7
100
AcDbSpline
210
0.0
220
0.0
230
1.0
 70
     8
 71
     3
 72
    11
 73
     7
 74
     5
 42
0.000000001
 43
0.0000000001
 44
0.00000001
 40
0.0
 40
0.0
 40
0.0
 40
0.0
 40
0.0777940352296903
 40
0.153845709819603
 40
0.2273626671068504
 40
0.2990333642713946
 40
0.2990333642713946
 40
0.2990333642713946
 40
0.2990333642713946
 10
-70.88602267044499
 20
192.8965957437746
 30
0.0
 10
-70.88332303076794
 20
192.9227061735478
 30
0.0
 10
-70.87798420138651
 20
192.9743422323166
 30
0.0
 10
-70.83638378115326
 20
193.0402794098584
 30
0.0
 10
-70.77587984458384
 20
193.0872920762749
 30
0.0
 10
-70.72709441098029
 20
193.0935209286674
 30
0.0
 10
-70.703011879368
 20
193.0965957437748
 30
0.0
 11
-70.88602267044499
 21
192.8965957437746
 31
0.0
 11
-70.87209128938603
 21
192.9731321975383
 31
0.0
 11
-70.8324200507688
 21
193.038017100012
 31
0.0
 11
-70.77304686411547
 21
193.0813710884668
 31
0.0
 11
-70.703011879368
 21
193.0965957437748
 31
0.0
  0
SPLINE
  5
34B
330
1F
100
AcDbEntity
  8
0
  6
Continuous
 62
     7
100
AcDbSpline
210
0.0
220
0.0
230
1.0
 70
     8
 71
     3
 72
    11
 73
     7
 74
     5
 42
0.000000001
 43
0.0000000001
 44
0.00000001
 40
0.0
 40
0.0
 40
0.0
 40
0.0
 40
0.0777940352296674
 40
0.1538457098195727
 40
0.2273626671068201
 40
0.2990333642713365
 40
0.2990333642713365
 40
0.2990333642713365
 40
0.2990333642713365
 10
-71.686022670445
 20
192.8965957437746
 30
0.0
 10
-71.68872231012197
 20
192.9227061735479
 30
0.0
 10
-71.69406113950336
 20
192.9743422323166
 30
0.0
 10
-71.73566155973657
 20
193.0402794098584
 30
0.0
 10
-71.796165496306
 20
193.0872920762749
 30
0.0
 10
-71.84495092990953
 20
193.0935209286673
 30
0.0
 10
-71.86903346152181
 20
193.0965957437748
 30
0.0
 11
-71.686022670445
 21
192.8965957437746
 31
0.0
 11
-71.69995405150382
 21
192.9731321975383
 31
0.0
 11
-71.73962529012104
 21
193.038017100012
 31
0.0
 11
-71.79899847677437
 21
193.0813710884668
 31
0.0
 11
-71.86903346152181
 21
193.0965957437748
 31
0.0
  0
SPLINE
  5
34C
330
1F
100
AcDbEntity
  8
0
  6
Continuous
 62
     7
100
AcDbSpline
210
0.0
220
0.0
230
1.0
 70
     8
 71
     3
 72
    19
 73
    15
 74
    13
 42
0.000000001
 43
0.0000000001
 44
0.00000001
 40
0.0
 40
0.0
 40
0.0
 40
0.0
 40
0.0335130918212674
 40
0.0584966179544904
 40
0.0842814895591096
 40
0.103828680544672
 40
0.1243270917588761
 40
0.1430589771287151
 40
0.1612218197678583
 40
0.1739185023580455
 40
0.1870364092308271
 40
0.1955442324621556
 40
0.2050789540538566
 40
0.2106071258319331
 40
0.2106071258319331
 40
0.2106071258319331
 40
0.2106071258319331
 10
-73.50618528281998
 20
192.8965957437746
 30
0.0
 10
-73.50629202136747
 20
192.9077674499089
 30
0.0
 10
-73.50647832401576
 20
192.9272675018178
 30
0.0
 10
-73.50786427604424
 20
192.9553324951047
 30
0.0
 10
-73.50965657793652
 20
192.978705987926
 30
0.0
 10
-73.51201308171353
 20
193.000525247827
 30
0.0
 10
-73.51473476221071
 20
193.0199332858953
 30
0.0
 10
-73.5181465545167
 20
193.0387599780015
 30
0.0
 10
-73.52191324046436
 20
193.0548770846654
 30
0.0
 10
-73.52617935354914
 20
193.0688856358053
 30
0.0
 10
-73.53039834038039
 20
193.0796225162858
 30
0.0
 10
-73.53548224936354
 20
193.0885282686336
 30
0.0
 10
-73.54068204693176
 20
193.0951433256602
 30
0.0
 10
-73.54569606518636
 20
193.0962058023622
 30
0.0
 10
-73.5475362380445
 20
193.0965957437748
 30
0.0
 11
-73.50618528281998
 21
192.8965957437746
 31
0.0
 11
-73.50676007540208
 21
192.9301038979845
 31
0.0
 11
-73.5079623098749
 21
192.9550584810452
 31
0.0
 11
-73.5099667477536
 21
192.9807653251175
 31
0.0
 11
-73.5120793011587
 21
193.0001980241518
 31
0.0
 11
-73.51495731824116
 21
193.0204933900375
 31
0.0
 11
-73.51833738898279
 21
193.0389177935945
 31
0.0
 11
-73.5225534760415
 21
193.056584526598
 31
0.0
 11
-73.5263003319314
 21
193.0687157595696
 31
0.0
 11
-73.53128514652707
 21
193.0808496415451
 31
0.0
 11
-73.5355451960719
 21
193.0882140847149
 31
0.0
 11
-73.54224349453095
 21
193.0949996330396
 31
0.0
 11
-73.5475362380445
 21
193.0965957437748
 31
0.0
  0
SPLINE
  5
34D
330
1F
100
AcDbEntity
  8
0
  6
Continuous
 62
     7
100
AcDbSpline
210
0.0
220
0.0
230
1.0
 70
     8
 71
     3
 72
    19
 73
    15
 74
    13
 42
0.000000001
 43
0.0000000001
 44
0.00000001
 40
0.0
 40
0.0
 40
0.0
 40
0.0
 40
0.029549382418432
 40
0.0584967229305972
 40
0.0793149522786047
 40
0.1038287274651494
 40
0.1243271386732244
 40
0.1430590240504772
 40
0.1579890461176216
 40
0.1739180873759326
 40
0.1870359942378979
 40
0.1955438174579196
 40
0.2032549365870596
 40
0.2105760394748662
 40
0.2105760394748662
 40
0.2105760394748662
 40
0.2105760394748662
 10
-75.96586005806981
 20
192.8965957437746
 30
0.0
 10
-75.9657753423245
 20
192.9064458942667
 30
0.0
 10
-75.96560764590632
 20
192.9259455074905
 30
0.0
 10
-75.96435993149795
 20
192.9523612016801
 30
0.0
 10
-75.9625340675086
 20
192.9770552502513
 30
0.0
 10
-75.96026207114434
 20
192.9988856131053
 30
0.0
 10
-75.9573103292891
 20
193.0199327402584
 30
0.0
 10
-75.95409191800029
 20
193.0377011218823
 30
0.0
 10
-75.95039316666879
 20
193.0538248600589
 30
0.0
 10
-75.94625788117943
 20
193.0678796085432
 30
0.0
 10
-75.94165802851745
 20
193.0796141949388
 30
0.0
 10
-75.93683639760988
 20
193.088025013896
 30
0.0
 10
-75.9318845752403
 20
193.0945664287763
 30
0.0
 10
-75.92692469678032
 20
193.0959311034592
 30
0.0
 10
-75.9245091028454
 20
193.0965957437748
 30
0.0
 11
-75.96586005806981
 21
192.8965957437746
 31
0.0
 11
-75.96541389060816
 21
192.9261417498343
 31
0.0
 11
-75.96408303101501
 21
192.9550584810452
 31
0.0
 11
-75.9625299479767
 21
192.9758186979558
 31
0.0
 11
-75.9599660397312
 21
193.0001980241518
 31
0.0
 11
-75.95708802264981
 21
193.0204933900304
 31
0.0
 11
-75.95370795190709
 21
193.0389177935945
 31
0.0
 11
-75.95032719502396
 21
193.053460009277
 31
0.0
 11
-75.94574500895848
 21
193.0687157595696
 31
0.0
 11
-75.9407601943633
 21
193.080849641544
 31
0.0
 11
-75.9365001448179
 21
193.0882140847149
 31
0.0
 11
-75.93132947135932
 21
193.0939347020214
 31
0.0
 11
-75.9245091028454
 21
193.0965957437748
 31
0.0
  0
SPLINE
  5
34E
330
1F
100
AcDbEntity
  8
0
  6
Continuous
 62
     7
100
AcDbSpline
210
0.0
220
0.0
230
1.0
 70
     8
 71
     3
 72
    17
 73
    13
 74
    11
 42
0.000000001
 43
0.0000000001
 44
0.00000001
 40
0.0
 40
0.0
 40
0.0
 40
0.0
 40
0.0295493825317562
 40
0.0584967230552347
 40
0.0793149523990755
 40
0.1038287275942185
 40
0.1243271388011685
 40
0.1430590241845211
 40
0.1738617584599581
 40
0.1954814763888412
 40
0.2041164120812566
 40
0.210535563110438
 40
0.210535563110438
 40
0.210535563110438
 40
0.210535563110438
 10
-56.66586005806988
 20
192.8965957437746
 30
0.0
 10
-56.66577534648471
 20
192.9064459078337
 30
0.0
 10
-56.66560765808742
 20
192.9259455478791
 30
0.0
 10
-56.66435988859934
 20
192.9523610627555
 30
0.0
 10
-56.66253418649805
 20
192.9770556378308
 30
0.0
 10
-56.6602615686709
 20
192.9988839797731
 30
0.0
 10
-56.6573118044519
 20
193.0199375379513
 30
0.0
 10
-56.65314234429907
 20
193.0428878128602
 30
0.0
 10
-56.64736892877947
 20
193.066061741134
 30
0.0
 10
-56.63949569821363
 20
193.0846807349315
 30
0.0
 10
-56.63163042053713
 20
193.0948522878762
 30
0.0
 10
-56.62663792864418
 20
193.0960745554509
 30
0.0
 10
-56.62450910284539
 20
193.0965957437748
 30
0.0
 11
-56.66586005806988
 21
192.8965957437746
 31
0.0
 11
-56.66541389060828
 21
192.9261417498315
 31
0.0
 11
-56.664083031015
 21
192.9550584810452
 31
0.0
 11
-56.66252994797728
 21
192.9758186979493
 31
0.0
 11
-56.65996603973119
 21
193.0001980241518
 31
0.0
 11
-56.65708802265038
 21
193.0204933900273
 31
0.0
 11
-56.653707951907
 21
193.0389177935945
 31
0.0
 11
-56.64575851663256
 21
193.0686770760027
 31
0.0
 11
-56.63650014481789
 21
193.0882140847149
 31
0.0
 11
-56.63057486600628
 21
193.0944952587311
 31
0.0
 11
-56.62450910284539
 21
193.0965957437748
 31
0.0
  0
SPLINE
  5
34F
330
1F
100
AcDbEntity
  8
0
  6
Continuous
 62
     7
100
AcDbSpline
210
0.0
220
0.0
230
1.0
 70
     8
 71
     3
 72
    17
 73
    13
 74
    11
 42
0.000000001
 43
0.0000000001
 44
0.00000001
 40
0.0
 40
0.0
 40
0.0
 40
0.0
 40
0.0295493825430018
 40
0.0584967230564639
 40
0.1037123247153273
 40
0.1430458459739042
 40
0.159567738593596
 40
0.1739053056773768
 40
0.185893910279372
 40
0.1955304738726696
 40
0.2041654096183753
 40
0.2105845605576848
 40
0.2105845605576848
 40
0.2105845605576848
 40
0.2105845605576848
 10
-66.60618528282001
 20
192.8965957437746
 30
0.0
 10
-66.6062702265237
 20
192.9064459710231
 30
0.0
 10
-66.60643837450782
 20
192.9259457361518
 30
0.0
 10
-66.60806593531092
 20
192.9604855990795
 30
0.0
 10
-66.61137053855445
 20
192.9981914580785
 30
0.0
 10
-66.61650288442124
 20
193.0315265222067
 30
0.0
 10
-66.62178068316611
 20
193.0543418957413
 30
0.0
 10
-66.62587092104988
 20
193.0680171678971
 30
0.0
 10
-66.63024885590659
 20
193.079259642712
 30
0.0
 10
-66.6351074919716
 20
193.0879714131507
 30
0.0
 10
-66.64041696216438
 20
193.0948578222562
 30
0.0
 10
-66.64540802264109
 20
193.0960762098618
 30
0.0
 10
-66.64753623804441
 20
193.0965957437748
 30
0.0
 11
-66.60618528282001
 21
192.8965957437746
 31
0.0
 11
-66.60663145028181
 21
192.9261417498404
 31
0.0
 11
-66.60796230987481
 21
192.9550584810452
 31
0.0
 11
-66.61206564021553
 21
193.000087508443
 31
0.0
 11
-66.6183373889827
 21
193.0389177935945
 31
0.0
 11
-66.6221242233596
 21
193.0549998586045
 31
0.0
 11
-66.6263003319313
 21
193.0687157595696
 31
0.0
 11
-66.63079324267436
 21
193.0798306317446
 31
0.0
 11
-66.635545196072
 21
193.0882140847149
 31
0.0
 11
-66.64147047488551
 21
193.0944952587324
 31
0.0
 11
-66.64753623804441
 21
193.0965957437748
 31
0.0
  0
SPLINE
  5
350
330
1F
100
AcDbEntity
  8
0
  6
Continuous
 62
     7
100
AcDbSpline
210
0.0
220
0.0
230
1.0
 70
     8
 71
     3
 72
    19
 73
    15
 74
    13
 42
0.000000001
 43
0.0000000001
 44
0.00000001
 40
0.0
 40
0.0
 40
0.0
 40
0.0
 40
0.0295493824094308
 40
0.058496722929461
 40
0.0842815945278049
 40
0.1038287855240889
 40
0.1222683815575576
 40
0.1430589158270637
 40
0.1579889378994351
 40
0.1739179791527426
 40
0.1847863101390185
 40
0.1955416493229199
 40
0.2032527684469083
 40
0.2105738713464079
 40
0.2105738713464079
 40
0.2105738713464079
 40
0.2105738713464079
 10
-69.06586005806989
 20
192.8965957437746
 30
0.0
 10
-69.06577528980159
 20
192.9064459208419
 30
0.0
 10
-69.06560748939039
 20
192.9259455866797
 30
0.0
 10
-69.064282384012
 20
192.9540150372357
 30
0.0
 10
-69.06238859971077
 20
192.9787058298135
 30
0.0
 10
-69.06010628504022
 20
192.9998432388936
 30
0.0
 10
-69.05741485790311
 20
193.0192532344381
 30
0.0
 10
-69.05424558498235
 20
193.0370324968816
 30
0.0
 10
-69.0503922311842
 20
193.0538231254762
 30
0.0
 10
-69.04647291137798
 20
193.0671666936083
 30
0.0
 10
-69.04194404693115
 20
193.0789006867836
 30
0.0
 10
-69.03730907278802
 20
193.087410320335
 30
0.0
 10
-69.03188459673336
 20
193.0945644386049
 30
0.0
 10
-69.0269247038237
 20
193.0959304516511
 30
0.0
 10
-69.0245091028454
 20
193.0965957437748
 30
0.0
 11
-69.06586005806989
 21
192.8965957437746
 31
0.0
 11
-69.06541389060848
 21
192.9261417498262
 31
0.0
 11
-69.06408303101509
 21
192.9550584810452
 31
0.0
 11
-69.06207859313712
 21
192.9807653251084
 31
0.0
 11
-69.05996603973111
 21
193.0001980241518
 31
0.0
 11
-69.05741219790647
 21
193.0184599131829
 31
0.0
 11
-69.05370795190709
 21
193.0389177935945
 31
0.0
 11
-69.05032719502265
 21
193.053460009282
 31
0.0
 11
-69.04574500895859
 21
193.0687157595696
 31
0.0
 11
-69.04172610183433
 21
193.078813729472
 31
0.0
 11
-69.036500144818
 21
193.0882140847149
 31
0.0
 11
-69.03132947135926
 21
193.0939347020215
 31
0.0
 11
-69.0245091028454
 21
193.0965957437748
 31
0.0
  0
ARC
  5
351
330
1F
100
AcDbEntity
  8
1
  6
Continuous
 62
     7
100
AcDbCircle
 10
-132.7589657021903
 20
166.8632893058897
 30
0.0
 40
0.0490206755352433
100
AcDbArc
 50
299.9816393688449
 51
60.0183606310887
  0
ARC
  5
352
330
1F
100
AcDbEntity
  8
1
  6
Continuous
 62
     7
100
AcDbCircle
 10
-137.6609243511198
 20
166.8632893058897
 30
0.0
 40
0.0490206755352017
100
AcDbArc
 50
119.9816393690264
 51
240.01836063104
  0
ARC
  5
353
102
{ACAD_REACTORS
330
3A3
102
}
330
1F
100
AcDbEntity
  8
1
  6
Continuous
 62
     7
100
AcDbCircle
 10
-18.32369931125732
 20
12.83333333333326
 30
0.0
 40
0.1666666666666997
100
AcDbArc
 50
209.999999999964
 51
330.0000000000195
  0
ARC
  5
354
102
{ACAD_REACTORS
330
3A4
102
}
330
1F
100
AcDbEntity
  8
1
  6
Continuous
 62
     7
100
AcDbCircle
 10
-20.65703264459069
 20
10.2700211480327
 30
0.0
 40
0.6666666666666323
100
AcDbArc
 50
180.0000000000104
 51
240.0183606311566
  0
ARC
  5
355
330
1F
100
AcDbEntity
  8
1
  6
Continuous
 62
     7
100
AcDbCircle
 10
-26.65684751081722
 20
12.5
 30
0.0
 40
0.1666666666666105
100
AcDbArc
 50
119.9816393688866
 51
240.0183606311338
  0
ARC
  5
356
330
1F
100
AcDbEntity
  8
1
  6
Continuous
 62
     7
100
AcDbCircle
 10
-9.99055111169741
 20
12.5
 30
0.0
 40
0.1666666666666586
100
AcDbArc
 50
299.9816393688334
 51
60.01836063114615
  0
ARC
  5
357
102
{ACAD_REACTORS
330
3A6
102
}
330
1F
100
AcDbEntity
  8
1
  6
Continuous
 62
     7
100
AcDbCircle
 10
-15.65703264459069
 20
14.92250016016737
 30
0.0
 40
0.3333333333333749
100
AcDbArc
 50
60.01836063114941
 51
180.0
  0
ARC
  5
358
102
{ACAD_REACTORS
330
3A6
102
}
330
1F
100
AcDbEntity
  8
1
  6
Continuous
 62
     7
100
AcDbCircle
 10
-15.65703264459069
 20
10.07749983983263
 30
0.0
 40
0.3333333333332504
100
AcDbArc
 50
180.0
 51
299.9816393688506
  0
ARC
  5
359
330
1F
100
AcDbEntity
  8
1
  6
Continuous
 62
     7
100
AcDbCircle
 10
-121.659945026655
 20
192.8965957437746
 30
0.0
 40
0.1999999999999886
100
AcDbArc
 50
0.0
 51
90.0
  0
ARC
  5
35A
330
1F
100
AcDbEntity
  8
1
  6
Continuous
 62
     7
100
AcDbCircle
 10
-148.759945026655
 20
192.8965957437746
 30
0.0
 40
0.2000000000001876
100
AcDbArc
 50
90.0
 51
180.0
  0
MTEXT
  5
35C
330
1F
100
AcDbEntity
  8
1
 62
     7
100
AcDbMText
 10
-174.0
 20
17.49999999999994
 30
0.0
 40
2.5
 41
0.0
 71
     5
 72
     1
  1
dimensions in mm
  7
CONVERTER_11
 73
     1
 44
0.60024009603842
  0
MTEXT
  5
35E
330
1F
100
AcDbEntity
  8
1
 62
     7
100
AcDbMText
 10
-194.0000000000001
 20
151.4999999999998
 30
0.0
 40
4.0
 41
0.0
 71
     5
 72
     1
  1
Diritti riservati      All rights reserved
  7
CONVERTER_12
 11
0.0
 21
1.0
 31
0.0
 73
     1
 44
1.32052821128451
  0
MTEXT
  5
35F
330
1F
100
AcDbEntity
  8
1
 62
     7
100
AcDbMText
 10
-188.0
 20
12.49999999999989
 30
0.0
 40
3.0
 41
0.0
 71
     4
 72
     1
  1
Date
  7
CONVERTER_12
 73
     1
 44
1.32052821128451
  0
MTEXT
  5
360
330
1F
100
AcDbEntity
  8
1
 62
     7
100
AcDbMText
 10
-177.4
 20
12.49999999999989
 30
0.0
 40
3.0
 41
0.0
 71
     4
 72
     1
  1
16/02/06
  7
CONVERTER_12
 73
     1
 44
1.32052821128451
  0
MTEXT
  5
361
330
1F
100
AcDbEntity
  8
1
 62
     7
100
AcDbMText
 10
-188.0
 20
7.49999999999989
 30
0.0
 40
3.0
 41
0.0
 71
     4
 72
     1
  1
Sign.
  7
CONVERTER_12
 73
     1
 44
1.32052821128451
  0
MTEXT
  5
362
330
1F
100
AcDbEntity
  8
1
 62
     7
100
AcDbMText
 10
-177.4
 20
7.49999999999989
 30
0.0
 40
3.0
 41
0.0
 71
     4
 72
     1
  1
R. Carnelli
  7
CONVERTER_12
 73
     1
 44
1.32052821128451
  0
MTEXT
  5
363
330
1F
100
AcDbEntity
  8
1
 62
     7
100
AcDbMText
 10
-152.7236993112573
 20
12.5
 30
0.0
 40
4.5
 41
0.0
 71
     4
 72
     1
  1
CX 20 CF\Pfemale modular , crimp , 20P 16A 500V
  7
CONVERTER_12
 73
     1
 44
0.90036014405762
  0
MTEXT
  5
364
330
1F
100
AcDbEntity
  8
1
 62
     7
100
AcDbMText
 10
-40.3236993112573
 20
16.26063942075598
 30
0.0
 40
3.0
 41
0.0
 71
     5
 72
     1
  1
Scale
  7
CONVERTER_12
 73
     1
 44
1.32052821128451
  0
MTEXT
  5
365
330
1F
100
AcDbEntity
  8
1
 62
     7
100
AcDbMText
 10
-40.3236993112573
 20
10.06063942075605
 30
0.0
 40
4.5
 41
0.0
 71
     5
 72
     1
  1
1:1
  7
CONVERTER_12
 73
     1
 44
1.32052821128451
  0
MTEXT
  5
367
330
1F
100
AcDbEntity
  8
1
 62
     7
100
AcDbMText
 10
-147.9155029433673
 20
228.6785305363945
 30
0.0
 40
1.3
 41
0.0
 71
     7
 72
     1
  1
1
  7
CONVERTER_13
 11
-1.0
 21
0.0
 31
0.0
 73
     1
 44
1.32052821128451
  0
MTEXT
  5
368
330
1F
100
AcDbEntity
  8
1
 62
     7
100
AcDbMText
 10
-147.6945624487765
 20
235.3002686329624
 30
0.0
 40
1.3
 41
0.0
 71
     7
 72
     1
  1
2
  7
CONVERTER_13
 11
-1.0
 21
0.0
 31
0.0
 73
     1
 44
1.32052821128451
  0
MTEXT
  5
369
330
1F
100
AcDbEntity
  8
1
 62
     7
100
AcDbMText
 10
-147.6609062719707
 20
247.9896266028285
 30
0.0
 40
1.3
 41
0.0
 71
     7
 72
     1
  1
3
  7
CONVERTER_13
 11
-1.0
 21
0.0
 31
0.0
 73
     1
 44
1.32052821128451
  0
MTEXT
  5
36A
330
1F
100
AcDbEntity
  8
1
 62
     7
100
AcDbMText
 10
-147.7237326848888
 20
254.6711454996375
 30
0.0
 40
1.3
 41
0.0
 71
     7
 72
     1
  1
4
  7
CONVERTER_13
 11
-1.0
 21
0.0
 31
0.0
 73
     1
 44
1.32052821128451
  0
MTEXT
  5
36B
330
1F
100
AcDbEntity
  8
1
 62
     7
100
AcDbMText
 10
-143.0190658830356
 20
228.6736763615524
 30
0.0
 40
1.3
 41
0.0
 71
     7
 72
     1
  1
5
  7
CONVERTER_13
 11
-1.0
 21
0.0
 31
0.0
 73
     1
 44
1.32052821128451
  0
MTEXT
  5
36C
330
1F
100
AcDbEntity
  8
1
 62
     7
100
AcDbMText
 10
-142.8331663395632
 20
235.2922109847395
 30
0.0
 40
1.3
 41
0.0
 71
     7
 72
     1
  1
6
  7
CONVERTER_13
 11
-1.0
 21
0.0
 31
0.0
 73
     1
 44
1.32052821128451
  0
MTEXT
  5
36D
330
1F
100
AcDbEntity
  8
1
 62
     7
100
AcDbMText
 10
-142.8442425067735
 20
248.0395840218076
 30
0.0
 40
1.3
 41
0.0
 71
     7
 72
     1
  1
7
  7
CONVERTER_13
 11
-1.0
 21
0.0
 31
0.0
 73
     1
 44
1.32052821128451
  0
MTEXT
  5
36E
330
1F
100
AcDbEntity
  8
1
 62
     7
100
AcDbMText
 10
-142.8255154476213
 20
254.6608119531795
 30
0.0
 40
1.3
 41
0.0
 71
     7
 72
     1
  1
8
  7
CONVERTER_13
 11
-1.0
 21
0.0
 31
0.0
 73
     1
 44
1.32052821128451
  0
MTEXT
  5
36F
330
1F
100
AcDbEntity
  8
1
 62
     7
100
AcDbMText
 10
-134.7852527311676
 20
228.2530417499745
 30
0.0
 40
1.3
 41
0.0
 71
     7
 72
     1
  1
9
  7
CONVERTER_13
 11
-1.0
 21
0.0
 31
0.0
 73
     1
 44
1.32052821128451
  0
MTEXT
  5
370
330
1F
100
AcDbEntity
  8
1
 62
     7
100
AcDbMText
 10
-134.4641634156685
 20
235.2379684111904
 30
0.0
 40
1.3
 41
0.0
 71
     7
 72
     1
  1
10
  7
CONVERTER_13
 11
-1.0
 21
0.0
 31
0.0
 73
     1
 44
1.32052821128451
  0
MTEXT
  5
371
330
1F
100
AcDbEntity
  8
1
 62
     7
100
AcDbMText
 10
-134.6449593909435
 20
247.9784032582706
 30
0.0
 40
1.3
 41
0.0
 71
     7
 72
     1
  1
11
  7
CONVERTER_13
 11
-1.0
 21
0.0
 31
0.0
 73
     1
 44
1.32052821128451
  0
MTEXT
  5
372
330
1F
100
AcDbEntity
  8
1
 62
     7
100
AcDbMText
 10
-134.4785418278189
 20
254.9724274344535
 30
0.0
 40
1.3
 41
0.0
 71
     7
 72
     1
  1
12
  7
CONVERTER_13
 11
-1.0
 21
0.0
 31
0.0
 73
     1
 44
1.32052821128451
  0
MTEXT
  5
373
330
1F
100
AcDbEntity
  8
1
 62
     7
100
AcDbMText
 10
-126.0351933339273
 20
228.6732511471095
 30
0.0
 40
1.3
 41
0.0
 71
     7
 72
     1
  1
13
  7
CONVERTER_13
 11
-1.0
 21
0.0
 31
0.0
 73
     1
 44
1.32052821128451
  0
MTEXT
  5
374
330
1F
100
AcDbEntity
  8
1
 62
     7
100
AcDbMText
 10
-126.008649644308
 20
235.2695225068025
 30
0.0
 40
1.3
 41
0.0
 71
     7
 72
     1
  1
14
  7
CONVERTER_13
 11
-1.0
 21
0.0
 31
0.0
 73
     1
 44
1.32052821128451
  0
MTEXT
  5
375
330
1F
100
AcDbEntity
  8
1
 62
     7
100
AcDbMText
 10
-126.050169775869
 20
248.0086674453975
 30
0.0
 40
1.3
 41
0.0
 71
     7
 72
     1
  1
15
  7
CONVERTER_13
 11
-1.0
 21
0.0
 31
0.0
 73
     1
 44
1.32052821128451
  0
MTEXT
  5
376
330
1F
100
AcDbEntity
  8
1
 62
     7
100
AcDbMText
 10
-126.0527326684652
 20
254.6652011564834
 30
0.0
 40
1.3
 41
0.0
 71
     7
 72
     1
  1
16
  7
CONVERTER_13
 11
-1.0
 21
0.0
 31
0.0
 73
     1
 44
1.32052821128451
  0
MTEXT
  5
377
330
1F
100
AcDbEntity
  8
1
 62
     7
100
AcDbMText
 10
-121.7143446307692
 20
235.2748273834746
 30
0.0
 40
1.3
 41
0.0
 71
     7
 72
     1
  1
18
  7
CONVERTER_13
 11
-1.0
 21
0.0
 31
0.0
 73
     1
 44
1.32052821128451
  0
MTEXT
  5
378
330
1F
100
AcDbEntity
  8
1
 62
     7
100
AcDbMText
 10
-121.7311695450162
 20
228.6501087147685
 30
0.0
 40
1.3
 41
0.0
 71
     7
 72
     1
  1
17
  7
CONVERTER_13
 11
-1.0
 21
0.0
 31
0.0
 73
     1
 44
1.32052821128451
  0
MTEXT
  5
379
330
1F
100
AcDbEntity
  8
1
 62
     7
100
AcDbMText
 10
-121.7243692470304
 20
247.9902905572286
 30
0.0
 40
1.3
 41
0.0
 71
     7
 72
     1
  1
19
  7
CONVERTER_13
 11
-1.0
 21
0.0
 31
0.0
 73
     1
 44
1.32052821128451
  0
MTEXT
  5
37A
330
1F
100
AcDbEntity
  8
1
 62
     7
100
AcDbMText
 10
-121.5994997103341
 20
254.6516405675225
 30
0.0
 40
1.3
 41
0.0
 71
     7
 72
     1
  1
20
  7
CONVERTER_13
 11
-1.0
 21
0.0
 31
0.0
 73
     1
 44
1.32052821128451
  0
TEXT
  5
37B
330
1F
100
AcDbEntity
  8
1
 62
     7
100
AcDbText
 10
-144.60013444094
 20
104.2566146764585
 30
0.0
 40
1.3
  1
1
 41
0.855
  7
CONVERTER_13
100
AcDbText
  0
TEXT
  5
37C
330
1F
100
AcDbEntity
  8
1
 62
     7
100
AcDbText
 10
-137.1185528112787
 20
104.2687704935485
 30
0.0
 40
1.3
  1
9
 41
0.855
  7
CONVERTER_13
100
AcDbText
  0
TEXT
  5
37D
330
1F
100
AcDbEntity
  8
1
 62
     7
100
AcDbText
 10
-127.2283908428927
 20
104.2633912385863
 30
0.0
 40
1.3
  1
17
 41
0.855
  7
CONVERTER_13
100
AcDbText
  0
TEXT
  5
37E
330
1F
100
AcDbEntity
  8
1
 62
     7
100
AcDbText
 10
-137.8358933730963
 20
90.98949962930249
 30
0.0
 40
1.3
  1
12
 41
0.855
  7
CONVERTER_13
100
AcDbText
  0
TEXT
  5
37F
330
1F
100
AcDbEntity
  8
1
 62
     7
100
AcDbText
 10
-127.5471188663863
 20
90.97760884290767
 30
0.0
 40
1.3
  1
20
 41
0.855
  7
CONVERTER_13
100
AcDbText
  0
TEXT
  5
380
330
1F
100
AcDbEntity
  8
1
 62
     7
100
AcDbText
 10
-144.6270795913356
 20
90.92837785863338
 30
0.0
 40
1.3
  1
4
 41
0.855
  7
CONVERTER_13
100
AcDbText
  0
DIMENSION
  5
38C
330
1F
100
AcDbEntity
  8
1
100
AcDbDimension
  2
*D1
 10
-149.909945026655
 20
137.7215057175225
 30
0.0
 11
-135.209945026655
 21
141.3715057175225
 31
0.0
 70
    32
  1
<>
 71
     5
 42
-1.0
 53
0.00013888888889
  3
ME10_DIM_10
100
AcDbAlignedDimension
 13
-120.509945026655
 23
153.0965957437748
 33
0.0
 14
-149.909945026655
 24
153.0965957437748
 34
0.0
100
AcDbRotatedDimension
  0
DIMENSION
  5
397
330
1F
100
AcDbEntity
  8
1
100
AcDbDimension
  2
*D2
 10
-33.082147024504
 20
193.0965957437748
 30
0.0
 11
-36.582147024504
 21
173.0965957437748
 31
0.0
 70
    32
  1
<>
 71
     5
 42
-1.0
 53
90.0
  3
ME10_DIM_11
100
AcDbAlignedDimension
 13
-50.08602267044489
 23
153.0965957437748
 33
0.0
 14
-51.91102267044491
 24
193.0965957437748
 34
0.0
 50
90.0
100
AcDbRotatedDimension
  0
DIMENSION
  5
3A2
330
1F
100
AcDbEntity
  8
1
100
AcDbDimension
  2
*D3
 10
-50.08602267044489
 20
137.8215031806375
 30
0.0
 11
-65.08602267044489
 21
141.3215031806375
 31
0.0
 70
    32
  1
<>
 71
     5
 42
-1.0
 53
0.00013888888889
  3
ME10_DIM_12
100
AcDbAlignedDimension
 13
-80.08602267044489
 23
153.0965957437746
 33
0.0
 14
-50.08602267044489
 24
153.0965957437748
 34
0.0
100
AcDbRotatedDimension
  0
HATCH
  5
3A3
330
1F
100
AcDbEntity
  8
1
  6
Continuous
 62
     7
100
AcDbHatch
 10
0.0
 20
0.0
 30
0.0
210
0.0
220
0.0
230
1.0
  2
SOLID
 70
     1
 71
     1
 91
        1
 92
        1
 93
       16
 72
     2
 10
-16.921998857066
 20
15.73121731203457
 40
0.2649662124753114
 50
210.0000000000258
 51
360.0
 73
     0
 72
     1
 10
-16.65703264459069
 20
15.73121731203457
 11
-16.65703264459069
 21
9.308269070601796
 72
     2
 10
-16.99036597792394
 20
9.308269070601796
 40
0.3333333333333819
 50
0.0
 51
180.0
 73
     0
 72
     1
 10
-17.32369931125732
 20
9.308269070601796
 11
-17.32369931125732
 21
12.5
 72
     1
 10
-17.32369931125732
 20
12.5
 11
-17.32369931125732
 21
14.23205080756884
 72
     1
 10
-17.32369931125732
 20
14.23205080756884
 11
-18.17936174395993
 21
12.75
 72
     2
 10
-18.32369931125732
 20
12.83333333333326
 40
0.1666666666666997
 50
29.99999999998053
 51
150.000000000036
 73
     0
 72
     1
 10
-18.46803687855481
 20
12.75
 11
-19.32369931125732
 21
14.23205080756884
 72
     1
 10
-19.32369931125732
 20
14.23205080756884
 11
-19.32369931125732
 21
12.5
 72
     1
 10
-19.32369931125732
 20
12.5
 11
-19.32369931125732
 21
10.84758507263291
 72
     2
 10
-19.65703264459069
 20
10.84758507263291
 40
0.3333333333333712
 50
0.0
 51
180.0
 73
     0
 72
     1
 10
-19.99036597792406
 20
10.84758507263291
 11
-19.99036597792406
 21
12.5
 72
     1
 10
-19.99036597792406
 20
12.5
 11
-19.99036597792406
 21
15.73121731203457
 72
     2
 10
-19.72539976544874
 20
15.73121731203457
 40
0.2649662124753284
 50
180.0
 51
329.9999999999862
 73
     0
 72
     1
 10
-19.49593229430059
 20
15.86370041827229
 11
-18.32369931125732
 21
13.83333333333326
 72
     1
 10
-18.32369931125732
 20
13.83333333333326
 11
-17.15146632821404
 21
15.86370041827229
 97
       16
330
A5
330
2A1
330
A4
330
A6
330
2A2
330
A7
330
9F
330
9E
330
353
330
9D
330
9C
330
A8
330
2A3
330
A9
330
2A4
330
AA
 75
     0
 76
     1
 98
        1
 10
0.0
 20
0.0
  0
HATCH
  5
3A4
330
1F
100
AcDbEntity
  8
1
  6
Continuous
 62
     7
100
AcDbHatch
 10
0.0
 20
0.0
 30
0.0
210
0.0
220
0.0
230
1.0
  2
SOLID
 70
     1
 71
     1
 91
        1
 92
        1
 93
        7
 72
     2
 10
-20.99036597792406
 20
14.92250016016737
 40
0.3333333333333712
 50
0.0
 51
180.0
 73
     1
 72
     1
 10
-21.32369931125732
 20
14.92250016016737
 11
-21.32369931125732
 21
10.27002114803258
 72
     2
 10
-20.65703264459069
 20
10.2700211480327
 40
0.6666666666666323
 50
180.0000000000104
 51
240.0183606311566
 73
     1
 72
     1
 10
-20.99018094691703
 20
9.692564090666906
 11
-18.8236067957539
 21
8.442617464995806
 72
     2
 10
-18.65703264459069
 20
8.731345993678701
 40
0.3333333333333673
 50
240.0183606311504
 51
420.0183606311505
 73
     1
 72
     1
 10
-18.49045849342748
 20
9.020074522361597
 11
-20.65703264459069
 21
10.2700211480327
 72
     1
 10
-20.65703264459069
 20
10.2700211480327
 11
-20.65703264459069
 21
14.92250016016737
 97
        7
330
2A5
330
AB
330
354
330
AE
330
2A6
330
AD
330
AC
 75
     0
 76
     1
 98
        1
 10
0.0
 20
0.0
  0
HATCH
  5
3A5
330
1F
100
AcDbEntity
  8
1
  6
Continuous
 62
     7
100
AcDbHatch
 10
0.0
 20
0.0
 30
0.0
210
0.0
220
0.0
230
1.0
  2
SOLID
 70
     1
 71
     1
 91
        1
 92
        1
 93
        5
 72
     2
 10
-22.32369931125732
 20
14.15326939093666
 40
0.3333333333332611
 50
0.0
 51
180.0
 73
     1
 72
     1
 10
-22.65703264459069
 20
14.15326939093666
 11
-22.65703264459069
 21
10.84673060906323
 72
     2
 10
-22.32369931125732
 20
10.84673060906323
 40
0.3333333333333677
 50
180.0
 51
360.0
 73
     1
 72
     1
 10
-21.99036597792406
 20
10.84673060906323
 11
-21.99036597792406
 21
11.0392519172633
 72
     1
 10
-21.99036597792406
 20
11.0392519172633
 11
-21.99036597792406
 21
14.15326939093666
 97
        5
330
2A7
330
B1
330
2A8
330
B0
330
AF
 75
     0
 76
     1
 98
        1
 10
0.0
 20
0.0
  0
HATCH
  5
3A6
330
1F
100
AcDbEntity
  8
1
  6
Continuous
 62
     7
100
AcDbHatch
 10
0.0
 20
0.0
 30
0.0
210
0.0
220
0.0
230
1.0
  2
SOLID
 70
     1
 71
     1
 91
        1
 92
        1
 93
       14
 72
     2
 10
-15.65703264459069
 20
14.92250016016737
 40
0.3333333333333749
 50
60.01836063114941
 51
180.0
 73
     1
 72
     1
 10
-15.99036597792394
 20
14.92250016016737
 11
-15.99036597792394
 21
10.07749983983263
 72
     2
 10
-15.65703264459069
 20
10.07749983983263
 40
0.3333333333332504
 50
180.0
 51
299.9816393688506
 73
     1
 72
     1
 10
-15.49045849342747
 20
9.78877131114973
 11
-14.15712516009421
 21
10.55800208038033
 72
     2
 10
-14.32369931125731
 20
10.84673060906323
 40
0.3333333333333145
 50
299.9816393688326
 51
479.9816393688413
 73
     1
 72
     1
 10
-14.49027346242053
 20
11.13545913774624
 11
-15.32369931125731
 21
10.65463653264794
 72
     1
 10
-15.32369931125731
 20
10.65463653264794
 11
-15.32369931125731
 21
12.16666666666663
 72
     1
 10
-15.32369931125731
 20
12.16666666666663
 11
-14.32369931125731
 21
12.16666666666663
 72
     2
 10
-14.32369931125731
 20
12.5
 40
0.3333333333333695
 50
270.0
 51
450.0
 73
     1
 72
     1
 10
-14.32369931125731
 20
12.83333333333326
 11
-15.32369931125731
 21
12.83333333333326
 72
     1
 10
-15.32369931125731
 20
12.83333333333326
 11
-15.32369931125731
 21
14.34536346735195
 72
     1
 10
-15.32369931125731
 20
14.34536346735195
 11
-14.49027346242053
 21
13.86454086225376
 72
     2
 10
-14.32369931125731
 20
14.15326939093666
 40
0.3333333333333773
 50
240.0183606311493
 51
420.0183606311572
 73
     1
 72
     1
 10
-14.15712516009421
 20
14.44199791961944
 11
-15.49045849342747
 21
15.21122868885027
 97
       14
330
2A9
330
B3
330
B4
330
B5
330
2AA
330
B6
330
B7
330
B8
330
2AB
330
B9
330
358
330
9B
330
357
330
B2
 75
     0
 76
     1
 98
        1
 10
0.0
 20
0.0
  0
ENDSEC
  0
SECTION
  2
OBJECTS
  0
DICTIONARY
  5
C
330
0
100
AcDbDictionary
281
     1
  3
ACAD_GROUP
350
D
  3
ACAD_LAYOUT
350
1A
  3
ACAD_MATERIAL
350
3B
  3
ACAD_MLEADERSTYLE
350
3A9
  3
ACAD_MLINESTYLE
350
17
  3
ACAD_PLOTSETTINGS
350
19
  3
ACAD_PLOTSTYLENAME
350
E
  3
ACAD_VISUALSTYLE
350
2A
  3
AcDbVariableDictionary
350
3A7
  0
DICTIONARY
  5
D
102
{ACAD_REACTORS
330
C
102
}
330
C
100
AcDbDictionary
281
     1
  0
DICTIONARY
  5
1A
102
{ACAD_REACTORS
330
C
102
}
330
C
100
AcDbDictionary
281
     1
  3
Layout1
350
1E
  3
Layout2
350
26
  3
Model
350
22
  0
DICTIONARY
  5
3B
102
{ACAD_REACTORS
330
C
102
}
330
C
100
AcDbDictionary
281
     1
  3
ByBlock
350
3D
  3
ByLayer
350
3C
  3
Global
350
3E
  0
DICTIONARY
  5
3A9
102
{ACAD_REACTORS
330
C
102
}
330
C
100
AcDbDictionary
281
     1
  0
DICTIONARY
  5
17
102
{ACAD_REACTORS
330
C
102
}
330
C
100
AcDbDictionary
281
     1
  3
Standard
350
18
  0
DICTIONARY
  5
19
102
{ACAD_REACTORS
330
C
102
}
330
C
100
AcDbDictionary
281
     1
  0
ACDBDICTIONARYWDFLT
  5
E
102
{ACAD_REACTORS
330
C
102
}
330
C
100
AcDbDictionary
281
     1
  3
Normal
350
F
100
AcDbDictionaryWithDefault
340
F
  0
DICTIONARY
  5
2A
102
{ACAD_REACTORS
330
C
102
}
330
C
100
AcDbDictionary
281
     1
  3
2dWireframe
350
2F
  3
3D Hidden
350
31
  3
3dWireframe
350
30
  3
Basic
350
32
  3
Brighten
350
36
  3
ColorChange
350
3A
  3
Conceptual
350
34
  3
Dim
350
35
  3
Facepattern
350
39
  3
Flat
350
2B
  3
FlatWithEdges
350
2C
  3
Gouraud
350
2D
  3
GouraudWithEdges
350
2E
  3
Linepattern
350
38
  3
Realistic
350
33
  3
Thicken
350
37
  0
DICTIONARY
  5
3A7
102
{ACAD_REACTORS
330
C
102
}
330
C
100
AcDbDictionary
281
     1
  3
DIMASSOC
350
3AA
  3
HIDETEXT
350
3AB
  0
LAYOUT
  5
1E
102
{ACAD_REACTORS
330
1A
102
}
330
1A
100
AcDbPlotSettings
  1

  2
none_device
  4

  6

 40
0.0
 41
0.0
 42
0.0
 43
0.0
 44
0.0
 45
0.0
 46
0.0
 47
0.0
 48
0.0
 49
0.0
140
0.0
141
0.0
142
1.0
143
1.0
 70
   688
 72
     0
 73
     0
 74
     5
  7

 75
    16
147
1.0
148
0.0
149
0.0
100
AcDbLayout
  1
Layout1
 70
     1
 71
     1
 10
0.0
 20
0.0
 11
12.0
 21
9.0
 12
0.0
 22
0.0
 32
0.0
 14
1.00000000000000E+20
 24
1.00000000000000E+20
 34
1.00000000000000E+20
 15
-1.00000000000000E+20
 25
-1.00000000000000E+20
 35
-1.00000000000000E+20
146
0.0
 13
0.0
 23
0.0
 33
0.0
 16
1.0
 26
0.0
 36
0.0
 17
0.0
 27
1.0
 37
0.0
 76
     0
330
1B
  0
LAYOUT
  5
26
102
{ACAD_REACTORS
330
1A
102
}
330
1A
100
AcDbPlotSettings
  1

  2
none_device
  4

  6

 40
0.0
 41
0.0
 42
0.0
 43
0.0
 44
0.0
 45
0.0
 46
0.0
 47
0.0
 48
0.0
 49
0.0
140
0.0
141
0.0
142
1.0
143
1.0
 70
   688
 72
     0
 73
     0
 74
     5
  7

 75
    16
147
1.0
148
0.0
149
0.0
100
AcDbLayout
  1
Layout2
 70
     1
 71
     2
 10
0.0
 20
0.0
 11
0.0
 21
0.0
 12
0.0
 22
0.0
 32
0.0
 14
0.0
 24
0.0
 34
0.0
 15
0.0
 25
0.0
 35
0.0
146
0.0
 13
0.0
 23
0.0
 33
0.0
 16
1.0
 26
0.0
 36
0.0
 17
0.0
 27
1.0
 37
0.0
 76
     0
330
23
  0
LAYOUT
  5
22
102
{ACAD_REACTORS
330
1A
102
}
330
1A
100
AcDbPlotSettings
  1

  2
none_device
  4

  6

 40
0.0
 41
0.0
 42
0.0
 43
0.0
 44
0.0
 45
0.0
 46
0.0
 47
0.0
 48
0.0
 49
0.0
140
0.0
141
0.0
142
1.0
143
1.0
 70
  1712
 72
     0
 73
     0
 74
     0
  7

 75
     0
147
1.0
148
0.0
149
0.0
100
AcDbLayout
  1
Model
 70
     1
 71
     0
 10
0.0
 20
0.0
 11
12.0
 21
9.0
 12
0.0
 22
0.0
 32
0.0
 14
-210.0000000000001
 24
0.0
 34
0.0
 15
0.0
 25
297.0000000000001
 35
0.0
146
0.0
 13
0.0
 23
0.0
 33
0.0
 16
1.0
 26
0.0
 36
0.0
 17
0.0
 27
1.0
 37
0.0
 76
     0
330
1F
331
29
  0
MATERIAL
  5
3D
102
{ACAD_REACTORS
330
3B
102
}
102
{ACAD_XDICTIONARY
360
3CE
102
}
330
3B
100
AcDbMaterial
  1
ByBlock
  0
MATERIAL
  5
3C
102
{ACAD_REACTORS
330
3B
102
}
102
{ACAD_XDICTIONARY
360
3CC
102
}
330
3B
100
AcDbMaterial
  1
ByLayer
  0
MATERIAL
  5
3E
102
{ACAD_REACTORS
330
3B
102
}
102
{ACAD_XDICTIONARY
360
3D0
102
}
330
3B
100
AcDbMaterial
  1
Global
  0
MLINESTYLE
  5
18
102
{ACAD_REACTORS
330
17
102
}
330
17
100
AcDbMlineStyle
  2
Standard
 70
     0
  3

 62
   256
 51
90.0
 52
90.0
 71
     2
 49
0.5
 62
   256
  6
BYLAYER
 49
-0.5
 62
   256
  6
BYLAYER
  0
ACDBPLACEHOLDER
  5
F
102
{ACAD_REACTORS
330
E
102
}
330
E
  0
VISUALSTYLE
  5
2F
102
{ACAD_REACTORS
330
2A
102
}
102
{ACAD_XDICTIONARY
360
3B4
102
}
330
2A
100
AcDbVisualStyle
  2
2dWireframe
 70
     4
 71
     0
 72
     2
 73
     0
 90
        0
 40
-0.6
 41
-30.0
 62
     5
 63
     7
 74
     1
 91
        4
 64
     7
 65
   257
 75
     1
175
     1
 42
1.0
 92
        0
 66
   257
 43
1.0
 76
     1
 77
     6
 78
     2
 67
     7
 79
     5
170
     0
171
     0
290
     0
174
     0
 93
        1
 44
0.0
173
     0
291
     0
 45
0.0
1001
ACAD
1000
AcDbSavedByObjectVersion
1070
     0
  0
VISUALSTYLE
  5
31
102
{ACAD_REACTORS
330
2A
102
}
102
{ACAD_XDICTIONARY
360
3B8
102
}
330
2A
100
AcDbVisualStyle
  2
3D Hidden
 70
     6
 71
     1
 72
     2
 73
     2
 90
        0
 40
-0.6
 41
-30.0
 62
     5
 63
     7
 74
     2
 91
        2
 64
     7
 65
   257
 75
     2
175
     1
 42
40.0
 92
        0
 66
   257
 43
1.0
 76
     1
 77
     6
 78
     2
 67
     7
 79
     3
170
     0
171
     0
290
     0
174
     0
 93
        1
 44
0.0
173
     0
291
     0
 45
0.0
1001
ACAD
1000
AcDbSavedByObjectVersion
1070
     0
  0
VISUALSTYLE
  5
30
102
{ACAD_REACTORS
330
2A
102
}
102
{ACAD_XDICTIONARY
360
3B6
102
}
330
2A
100
AcDbVisualStyle
  2
3dWireframe
 70
     5
 71
     0
 72
     2
 73
     0
 90
        0
 40
-0.6
 41
-30.0
 62
     5
 63
     7
 74
     1
 91
        4
 64
     7
 65
   257
 75
     1
175
     1
 42
1.0
 92
        0
 66
   257
 43
1.0
 76
     1
 77
     6
 78
     2
 67
     7
 79
     5
170
     0
171
     0
290
     0
174
     0
 93
        1
 44
0.0
173
     0
291
     0
 45
0.0
1001
ACAD
1000
AcDbSavedByObjectVersion
1070
     0
  0
VISUALSTYLE
  5
32
102
{ACAD_REACTORS
330
2A
102
}
102
{ACAD_XDICTIONARY
360
3BA
102
}
330
2A
100
AcDbVisualStyle
  2
Basic
 70
     7
 71
     1
 72
     0
 73
     1
 90
        0
 40
-0.6
 41
-30.0
 62
     5
 63
     7
 74
     0
 91
        4
 64
     7
 65
   257
 75
     1
175
     1
 42
1.0
 92
        8
 66
     7
 43
1.0
 76
     1
 77
     6
 78
     2
 67
     7
 79
     5
170
     0
171
     0
290
     0
174
     0
 93
        1
 44
0.0
173
     0
291
     1
 45
0.0
1001
ACAD
1000
AcDbSavedByObjectVersion
1070
     0
  0
VISUALSTYLE
  5
36
102
{ACAD_REACTORS
330
2A
102
}
102
{ACAD_XDICTIONARY
360
3C2
102
}
330
2A
100
AcDbVisualStyle
  2
Brighten
 70
    12
 71
     2
 72
     2
 73
     0
 90
        0
 40
-0.6
 41
-30.0
 62
     5
 63
     7
 74
     1
 91
        4
 64
     7
 65
   257
 75
     1
175
     1
 42
1.0
 92
        8
 66
     7
 43
1.0
 76
     1
 77
     6
 78
     2
 67
     7
 79
     5
170
     0
171
     0
290
     0
174
     0
 93
        1
 44
50.0
173
     0
291
     1
 45
0.0
1001
ACAD
1000
AcDbSavedByObjectVersion
1070
     0
  0
VISUALSTYLE
  5
3A
102
{ACAD_REACTORS
330
2A
102
}
102
{ACAD_XDICTIONARY
360
3CA
102
}
330
2A
100
AcDbVisualStyle
  2
ColorChange
 70
    16
 71
     2
 72
     2
 73
     3
 90
        0
 40
-0.6
 41
-30.0
 62
     5
 63
     8
 74
     1
 91
        4
 64
     7
 65
   257
 75
     1
175
     1
 42
1.0
 92
        8
 66
     8
 43
1.0
 76
     1
 77
     6
 78
     2
 67
     7
 79
     5
170
     0
171
     0
290
     0
174
     0
 93
        1
 44
0.0
173
     0
291
     1
 45
0.0
1001
ACAD
1000
AcDbSavedByObjectVersion
1070
     0
  0
VISUALSTYLE
  5
34
102
{ACAD_REACTORS
330
2A
102
}
102
{ACAD_XDICTIONARY
360
3BE
102
}
330
2A
100
AcDbVisualStyle
  2
Conceptual
 70
     9
 71
     3
 72
     2
 73
     0
 90
        0
 40
-0.6
 41
-30.0
 62
     5
 63
     7
 74
     2
 91
        2
 64
     7
 65
   257
 75
     1
175
     1
 42
40.0
 92
        8
 66
     7
 43
1.0
 76
     1
 77
     6
 78
     2
 67
     7
 79
     3
170
     0
171
     0
290
     0
174
     0
 93
        1
 44
0.0
173
     0
291
     0
 45
0.0
1001
ACAD
1000
AcDbSavedByObjectVersion
1070
     0
  0
VISUALSTYLE
  5
35
102
{ACAD_REACTORS
330
2A
102
}
102
{ACAD_XDICTIONARY
360
3C0
102
}
330
2A
100
AcDbVisualStyle
  2
Dim
 70
    11
 71
     2
 72
     2
 73
     0
 90
        0
 40
-0.6
 41
-30.0
 62
     5
 63
     7
 74
     1
 91
        4
 64
     7
 65
   257
 75
     1
175
     1
 42
1.0
 92
        8
 66
     7
 43
1.0
 76
     1
 77
     6
 78
     2
 67
     7
 79
     5
170
     0
171
     0
290
     0
174
     0
 93
        1
 44
-50.0
173
     0
291
     1
 45
0.0
1001
ACAD
1000
AcDbSavedByObjectVersion
1070
     0
  0
VISUALSTYLE
  5
39
102
{ACAD_REACTORS
330
2A
102
}
102
{ACAD_XDICTIONARY
360
3C8
102
}
330
2A
100
AcDbVisualStyle
  2
Facepattern
 70
    15
 71
     2
 72
     2
 73
     0
 90
        0
 40
-0.6
 41
-30.0
 62
     5
 63
     7
 74
     1
 91
        4
 64
     7
 65
   257
 75
     1
175
     1
 42
1.0
 92
        8
 66
     7
 43
1.0
 76
     1
 77
     6
 78
     2
 67
     7
 79
     5
170
     0
171
     0
290
     0
174
     0
 93
        1
 44
0.0
173
     0
291
     1
 45
0.0
1001
ACAD
1000
AcDbSavedByObjectVersion
1070
     0
  0
VISUALSTYLE
  5
2B
102
{ACAD_REACTORS
330
2A
102
}
102
{ACAD_XDICTIONARY
360
3AC
102
}
330
2A
100
AcDbVisualStyle
  2
Flat
 70
     0
 71
     2
 72
     1
 73
     1
 90
        2
 40
-0.6
 41
30.0
 62
     5
 63
     7
 74
     0
 91
        4
 64
     7
 65
   257
 75
     1
175
     1
 42
1.0
 92
        8
 66
     7
 43
1.0
 76
     1
 77
     6
 78
     2
 67
     7
 79
     5
170
     0
171
     0
290
     0
174
     0
 93
       13
 44
0.0
173
     0
291
     1
 45
0.0
1001
ACAD
1000
AcDbSavedByObjectVersion
1070
     0
  0
VISUALSTYLE
  5
2C
102
{ACAD_REACTORS
330
2A
102
}
102
{ACAD_XDICTIONARY
360
3AE
102
}
330
2A
100
AcDbVisualStyle
  2
FlatWithEdges
 70
     1
 71
     2
 72
     1
 73
     1
 90
        2
 40
-0.6
 41
30.0
 62
     5
 63
     7
 74
     1
 91
        4
 64
     7
 65
   257
 75
     1
175
     1
 42
1.0
 92
        0
 66
   257
 43
1.0
 76
     1
 77
     6
 78
     2
 67
     7
 79
     5
170
     0
171
     0
290
     0
174
     0
 93
       13
 44
0.0
173
     0
291
     1
 45
0.0
1001
ACAD
1000
AcDbSavedByObjectVersion
1070
     0
  0
VISUALSTYLE
  5
2D
102
{ACAD_REACTORS
330
2A
102
}
102
{ACAD_XDICTIONARY
360
3B0
102
}
330
2A
100
AcDbVisualStyle
  2
Gouraud
 70
     2
 71
     2
 72
     2
 73
     1
 90
        2
 40
-0.6
 41
30.0
 62
     5
 63
     7
 74
     0
 91
        4
 64
     7
 65
   257
 75
     1
175
     1
 42
1.0
 92
        0
 66
     7
 43
1.0
 76
     1
 77
     6
 78
     2
 67
     7
 79
     5
170
     0
171
     0
290
     0
174
     0
 93
       13
 44
0.0
173
     0
291
     1
 45
0.0
1001
ACAD
1000
AcDbSavedByObjectVersion
1070
     0
  0
VISUALSTYLE
  5
2E
102
{ACAD_REACTORS
330
2A
102
}
102
{ACAD_XDICTIONARY
360
3B2
102
}
330
2A
100
AcDbVisualStyle
  2
GouraudWithEdges
 70
     3
 71
     2
 72
     2
 73
     1
 90
        2
 40
-0.6
 41
30.0
 62
     5
 63
     7
 74
     1
 91
        4
 64
     7
 65
   257
 75
     1
175
     1
 42
1.0
 92
        0
 66
   257
 43
1.0
 76
     1
 77
     6
 78
     2
 67
     7
 79
     5
170
     0
171
     0
290
     0
174
     0
 93
       13
 44
0.0
173
     0
291
     1
 45
0.0
1001
ACAD
1000
AcDbSavedByObjectVersion
1070
     0
  0
VISUALSTYLE
  5
38
102
{ACAD_REACTORS
330
2A
102
}
102
{ACAD_XDICTIONARY
360
3C6
102
}
330
2A
100
AcDbVisualStyle
  2
Linepattern
 70
    14
 71
     2
 72
     2
 73
     0
 90
        0
 40
-0.6
 41
-30.0
 62
     5
 63
     7
 74
     1
 91
        4
 64
     7
 65
   257
 75
     7
175
     7
 42
1.0
 92
        8
 66
     7
 43
1.0
 76
     1
 77
     6
 78
     2
 67
     7
 79
     5
170
     0
171
     0
290
     0
174
     0
 93
        1
 44
0.0
173
     0
291
     1
 45
0.0
1001
ACAD
1000
AcDbSavedByObjectVersion
1070
     0
  0
VISUALSTYLE
  5
33
102
{ACAD_REACTORS
330
2A
102
}
102
{ACAD_XDICTIONARY
360
3BC
102
}
330
2A
100
AcDbVisualStyle
  2
Realistic
 70
     8
 71
     2
 72
     2
 73
     0
 90
        0
 40
-0.6
 41
-30.0
 62
     5
 63
     7
 74
     1
 91
        0
 64
     7
 65
   257
 75
     1
175
     1
 42
1.0
 92
        8
 66
     8
 43
1.0
 76
     1
 77
     6
 78
     2
 67
     7
 79
     5
170
     0
171
     0
290
     0
174
     0
 93
       13
 44
0.0
173
     0
291
     0
 45
0.0
1001
ACAD
1000
AcDbSavedByObjectVersion
1070
     0
  0
VISUALSTYLE
  5
37
102
{ACAD_REACTORS
330
2A
102
}
102
{ACAD_XDICTIONARY
360
3C4
102
}
330
2A
100
AcDbVisualStyle
  2
Thicken
 70
    13
 71
     2
 72
     2
 73
     0
 90
        0
 40
-0.6
 41
-30.0
 62
     5
 63
     7
 74
     1
 91
        4
 64
     7
 65
   257
 75
     1
175
     1
 42
1.0
 92
       12
 66
     7
 43
1.0
 76
     1
 77
     6
 78
     2
 67
     7
 79
     5
170
     0
171
     0
290
     0
174
     0
 93
        1
 44
0.0
173
     0
291
     1
 45
0.0
1001
ACAD
1000
AcDbSavedByObjectVersion
1070
     0
  0
DICTIONARYVAR
  5
3AA
102
{ACAD_REACTORS
330
3A7
102
}
330
3A7
100
DictionaryVariables
280
     0
  1
2
  0
DICTIONARYVAR
  5
3AB
102
{ACAD_REACTORS
330
3A7
102
}
330
3A7
100
DictionaryVariables
280
     0
  1
1
  0
DICTIONARY
  5
3CE
330
3D
100
AcDbDictionary
280
     1
281
     1
  3
ACAD_XREC_ROUNDTRIP
360
3CF
  0
DICTIONARY
  5
3CC
330
3C
100
AcDbDictionary
280
     1
281
     1
  3
ACAD_XREC_ROUNDTRIP
360
3CD
  0
DICTIONARY
  5
3D0
330
3E
100
AcDbDictionary
280
     1
281
     1
  3
ACAD_XREC_ROUNDTRIP
360
3D1
  0
DICTIONARY
  5
3B4
330
2F
100
AcDbDictionary
280
     1
281
     1
  3
ACAD_XREC_ROUNDTRIP
360
3B5
  0
DICTIONARY
  5
3B8
330
31
100
AcDbDictionary
280
     1
281
     1
  3
ACAD_XREC_ROUNDTRIP
360
3B9
  0
DICTIONARY
  5
3B6
330
30
100
AcDbDictionary
280
     1
281
     1
  3
ACAD_XREC_ROUNDTRIP
360
3B7
  0
DICTIONARY
  5
3BA
330
32
100
AcDbDictionary
280
     1
281
     1
  3
ACAD_XREC_ROUNDTRIP
360
3BB
  0
DICTIONARY
  5
3C2
330
36
100
AcDbDictionary
280
     1
281
     1
  3
ACAD_XREC_ROUNDTRIP
360
3C3
  0
DICTIONARY
  5
3CA
330
3A
100
AcDbDictionary
280
     1
281
     1
  3
ACAD_XREC_ROUNDTRIP
360
3CB
  0
DICTIONARY
  5
3BE
330
34
100
AcDbDictionary
280
     1
281
     1
  3
ACAD_XREC_ROUNDTRIP
360
3BF
  0
DICTIONARY
  5
3C0
330
35
100
AcDbDictionary
280
     1
281
     1
  3
ACAD_XREC_ROUNDTRIP
360
3C1
  0
DICTIONARY
  5
3C8
330
39
100
AcDbDictionary
280
     1
281
     1
  3
ACAD_XREC_ROUNDTRIP
360
3C9
  0
DICTIONARY
  5
3AC
330
2B
100
AcDbDictionary
280
     1
281
     1
  3
ACAD_XREC_ROUNDTRIP
360
3AD
  0
DICTIONARY
  5
3AE
330
2C
100
AcDbDictionary
280
     1
281
     1
  3
ACAD_XREC_ROUNDTRIP
360
3AF
  0
DICTIONARY
  5
3B0
330
2D
100
AcDbDictionary
280
     1
281
     1
  3
ACAD_XREC_ROUNDTRIP
360
3B1
  0
DICTIONARY
  5
3B2
330
2E
100
AcDbDictionary
280
     1
281
     1
  3
ACAD_XREC_ROUNDTRIP
360
3B3
  0
DICTIONARY
  5
3C6
330
38
100
AcDbDictionary
280
     1
281
     1
  3
ACAD_XREC_ROUNDTRIP
360
3C7
  0
DICTIONARY
  5
3BC
330
33
100
AcDbDictionary
280
     1
281
     1
  3
ACAD_XREC_ROUNDTRIP
360
3BD
  0
DICTIONARY
  5
3C4
330
37
100
AcDbDictionary
280
     1
281
     1
  3
ACAD_XREC_ROUNDTRIP
360
3C5
  0
XRECORD
  5
3CF
102
{ACAD_REACTORS
330
3CE
102
}
330
3CE
100
AcDbXrecord
280
     1
102
MATERIAL
148
0.0
149
0.0
149
0.0
 93
        0
 94
      127
282
     0
 72
     1
 77
     1
171
     1
175
     1
179
     1
273
     0
  0
XRECORD
  5
3CD
102
{ACAD_REACTORS
330
3CC
102
}
330
3CC
100
AcDbXrecord
280
     1
102
MATERIAL
148
0.0
149
0.0
149
0.0
 93
        0
 94
      127
282
     0
 72
     1
 77
     1
171
     1
175
     1
179
     1
273
     0
  0
XRECORD
  5
3D1
102
{ACAD_REACTORS
330
3D0
102
}
330
3D0
100
AcDbXrecord
280
     1
102
MATERIAL
148
0.0
149
0.0
149
0.0
 93
        0
 94
      127
282
     0
 72
     1
 77
     1
171
     1
175
     1
179
     1
273
     0
  0
XRECORD
  5
3B5
102
{ACAD_REACTORS
330
3B4
102
}
330
3B4
100
AcDbXrecord
280
     1
102
RTVSPropertyOp0
 70
     1
102
RTVSPropertyOp1
 70
     1
102
RTVSPropertyOp2
 70
     1
102
RTVSPropertyOp3
 70
     1
102
RTVSPropertyOp4
 70
     1
102
RTVSPropertyOp5
 70
     1
102
RTVSPropertyOp6
 70
     1
102
RTVSPropertyOp7
 70
     1
102
RTVSPropertyOp8
 70
     1
102
RTVSPropertyOp9
 70
     1
102
RTVSPropertyOp10
 70
     1
102
RTVSPropertyOp11
 70
     1
102
RTVSPropertyOp12
 70
     1
102
RTVSPropertyOp13
 70
     1
102
RTVSPropertyOp14
 70
     1
102
RTVSPropertyOp15
 70
     1
102
RTVSPropertyOp16
 70
     1
102
RTVSPropertyOp17
 70
     1
102
RTVSPropertyOp18
 70
     1
102
RTVSPropertyOp19
 70
     1
102
RTVSPropertyOp20
 70
     1
102
RTVSPropertyOp21
 70
     1
102
RTVSPropertyOp22
 70
     1
102
RTVSPropertyOp23
 70
     1
102
RTVSPropertyOp24
 70
     1
102
RTVSPropertyOp25
 70
     1
102
RTVSPropertyOp26
 70
     1
102
RTVSPropertyOp27
 70
     1
102
RTVSPropertyOp28
 70
     1
102
RTVSPropertyOp29
 70
     1
102
RTVSPropertyOp30
 70
     1
102
RTVSPropertyOp31
 70
     1
102
RTVSPropertyOp32
 70
     1
  0
XRECORD
  5
3B9
102
{ACAD_REACTORS
330
3B8
102
}
330
3B8
100
AcDbXrecord
280
     1
102
RTVSPropertyOp0
 70
     1
102
RTVSPropertyOp1
 70
     1
102
RTVSPropertyOp2
 70
     1
102
RTVSPropertyOp3
 70
     1
102
RTVSPropertyOp4
 70
     1
102
RTVSPropertyOp5
 70
     1
102
RTVSPropertyOp6
 70
     1
102
RTVSPropertyOp7
 70
     1
102
RTVSPropertyOp8
 70
     1
102
RTVSPropertyOp9
 70
     1
102
RTVSPropertyOp10
 70
     1
102
RTVSPropertyOp11
 70
     1
102
RTVSPropertyOp12
 70
     1
102
RTVSPropertyOp13
 70
     1
102
RTVSPropertyOp14
 70
     1
102
RTVSPropertyOp15
 70
     1
102
RTVSPropertyOp16
 70
     1
102
RTVSPropertyOp17
 70
     1
102
RTVSPropertyOp18
 70
     1
102
RTVSPropertyOp19
 70
     1
102
RTVSPropertyOp20
 70
     1
102
RTVSPropertyOp21
 70
     1
102
RTVSPropertyOp22
 70
     1
102
RTVSPropertyOp23
 70
     1
102
RTVSPropertyOp24
 70
     1
102
RTVSPropertyOp25
 70
     1
102
RTVSPropertyOp26
 70
     1
102
RTVSPropertyOp27
 70
     1
102
RTVSPropertyOp28
 70
     1
102
RTVSPropertyOp29
 70
     1
102
RTVSPropertyOp30
 70
     1
102
RTVSPropertyOp31
 70
     1
102
RTVSPropertyOp32
 70
     1
  0
XRECORD
  5
3B7
102
{ACAD_REACTORS
330
3B6
102
}
330
3B6
100
AcDbXrecord
280
     1
102
RTVSPropertyOp0
 70
     1
102
RTVSPropertyOp1
 70
     1
102
RTVSPropertyOp2
 70
     1
102
RTVSPropertyOp3
 70
     1
102
RTVSPropertyOp4
 70
     1
102
RTVSPropertyOp5
 70
     1
102
RTVSPropertyOp6
 70
     1
102
RTVSPropertyOp7
 70
     1
102
RTVSPropertyOp8
 70
     1
102
RTVSPropertyOp9
 70
     1
102
RTVSPropertyOp10
 70
     1
102
RTVSPropertyOp11
 70
     1
102
RTVSPropertyOp12
 70
     1
102
RTVSPropertyOp13
 70
     1
102
RTVSPropertyOp14
 70
     1
102
RTVSPropertyOp15
 70
     1
102
RTVSPropertyOp16
 70
     1
102
RTVSPropertyOp17
 70
     1
102
RTVSPropertyOp18
 70
     1
102
RTVSPropertyOp19
 70
     1
102
RTVSPropertyOp20
 70
     1
102
RTVSPropertyOp21
 70
     1
102
RTVSPropertyOp22
 70
     1
102
RTVSPropertyOp23
 70
     1
102
RTVSPropertyOp24
 70
     1
102
RTVSPropertyOp25
 70
     1
102
RTVSPropertyOp26
 70
     1
102
RTVSPropertyOp27
 70
     1
102
RTVSPropertyOp28
 70
     1
102
RTVSPropertyOp29
 70
     1
102
RTVSPropertyOp30
 70
     1
102
RTVSPropertyOp31
 70
     1
102
RTVSPropertyOp32
 70
     1
  0
XRECORD
  5
3BB
102
{ACAD_REACTORS
330
3BA
102
}
330
3BA
100
AcDbXrecord
280
     1
102
RTVSPropertyOp0
 70
     1
102
RTVSPropertyOp1
 70
     1
102
RTVSPropertyOp2
 70
     1
102
RTVSPropertyOp3
 70
     1
102
RTVSPropertyOp4
 70
     1
102
RTVSPropertyOp5
 70
     1
102
RTVSPropertyOp6
 70
     1
102
RTVSPropertyOp7
 70
     1
102
RTVSPropertyOp8
 70
     1
102
RTVSPropertyOp9
 70
     1
102
RTVSPropertyOp10
 70
     1
102
RTVSPropertyOp11
 70
     1
102
RTVSPropertyOp12
 70
     1
102
RTVSPropertyOp13
 70
     1
102
RTVSPropertyOp14
 70
     1
102
RTVSPropertyOp15
 70
     1
102
RTVSPropertyOp16
 70
     1
102
RTVSPropertyOp17
 70
     1
102
RTVSPropertyOp18
 70
     1
102
RTVSPropertyOp19
 70
     1
102
RTVSPropertyOp20
 70
     1
102
RTVSPropertyOp21
 70
     1
102
RTVSPropertyOp22
 70
     1
102
RTVSPropertyOp23
 70
     1
102
RTVSPropertyOp24
 70
     1
102
RTVSPropertyOp25
 70
     1
102
RTVSPropertyOp26
 70
     1
102
RTVSPropertyOp27
 70
     1
102
RTVSPropertyOp28
 70
     1
102
RTVSPropertyOp29
 70
     1
102
RTVSPropertyOp30
 70
     1
102
RTVSPropertyOp31
 70
     1
102
RTVSPropertyOp32
 70
     1
  0
XRECORD
  5
3C3
102
{ACAD_REACTORS
330
3C2
102
}
330
3C2
100
AcDbXrecord
280
     1
102
RTVSPropertyOp0
 70
     1
102
RTVSPropertyOp1
 70
     1
102
RTVSPropertyOp2
 70
     1
102
RTVSPropertyOp3
 70
     1
102
RTVSPropertyOp4
 70
     1
102
RTVSPropertyOp5
 70
     1
102
RTVSPropertyOp6
 70
     1
102
RTVSPropertyOp7
 70
     1
102
RTVSPropertyOp8
 70
     1
102
RTVSPropertyOp9
 70
     1
102
RTVSPropertyOp10
 70
     1
102
RTVSPropertyOp11
 70
     1
102
RTVSPropertyOp12
 70
     1
102
RTVSPropertyOp13
 70
     1
102
RTVSPropertyOp14
 70
     1
102
RTVSPropertyOp15
 70
     1
102
RTVSPropertyOp16
 70
     1
102
RTVSPropertyOp17
 70
     1
102
RTVSPropertyOp18
 70
     1
102
RTVSPropertyOp19
 70
     1
102
RTVSPropertyOp20
 70
     1
102
RTVSPropertyOp21
 70
     1
102
RTVSPropertyOp22
 70
     1
102
RTVSPropertyOp23
 70
     1
102
RTVSPropertyOp24
 70
     1
102
RTVSPropertyOp25
 70
     1
102
RTVSPropertyOp26
 70
     1
102
RTVSPropertyOp27
 70
     1
102
RTVSPropertyOp28
 70
     1
102
RTVSPropertyOp29
 70
     1
102
RTVSPropertyOp30
 70
     1
102
RTVSPropertyOp31
 70
     1
102
RTVSPropertyOp32
 70
     1
  0
XRECORD
  5
3CB
102
{ACAD_REACTORS
330
3CA
102
}
330
3CA
100
AcDbXrecord
280
     1
102
RTVSPropertyOp0
 70
     1
102
RTVSPropertyOp1
 70
     1
102
RTVSPropertyOp2
 70
     1
102
RTVSPropertyOp3
 70
     1
102
RTVSPropertyOp4
 70
     1
102
RTVSPropertyOp5
 70
     1
102
RTVSPropertyOp6
 70
     1
102
RTVSPropertyOp7
 70
     1
102
RTVSPropertyOp8
 70
     1
102
RTVSPropertyOp9
 70
     1
102
RTVSPropertyOp10
 70
     1
102
RTVSPropertyOp11
 70
     1
102
RTVSPropertyOp12
 70
     1
102
RTVSPropertyOp13
 70
     1
102
RTVSPropertyOp14
 70
     1
102
RTVSPropertyOp15
 70
     1
102
RTVSPropertyOp16
 70
     1
102
RTVSPropertyOp17
 70
     1
102
RTVSPropertyOp18
 70
     1
102
RTVSPropertyOp19
 70
     1
102
RTVSPropertyOp20
 70
     1
102
RTVSPropertyOp21
 70
     1
102
RTVSPropertyOp22
 70
     1
102
RTVSPropertyOp23
 70
     1
102
RTVSPropertyOp24
 70
     1
102
RTVSPropertyOp25
 70
     1
102
RTVSPropertyOp26
 70
     1
102
RTVSPropertyOp27
 70
     1
102
RTVSPropertyOp28
 70
     1
102
RTVSPropertyOp29
 70
     1
102
RTVSPropertyOp30
 70
     1
102
RTVSPropertyOp31
 70
     1
102
RTVSPropertyOp32
 70
     1
  0
XRECORD
  5
3BF
102
{ACAD_REACTORS
330
3BE
102
}
330
3BE
100
AcDbXrecord
280
     1
102
RTVSPropertyOp0
 70
     1
102
RTVSPropertyOp1
 70
     1
102
RTVSPropertyOp2
 70
     1
102
RTVSPropertyOp3
 70
     1
102
RTVSPropertyOp4
 70
     1
102
RTVSPropertyOp5
 70
     1
102
RTVSPropertyOp6
 70
     1
102
RTVSPropertyOp7
 70
     1
102
RTVSPropertyOp8
 70
     1
102
RTVSPropertyOp9
 70
     1
102
RTVSPropertyOp10
 70
     1
102
RTVSPropertyOp11
 70
     1
102
RTVSPropertyOp12
 70
     1
102
RTVSPropertyOp13
 70
     1
102
RTVSPropertyOp14
 70
     1
102
RTVSPropertyOp15
 70
     1
102
RTVSPropertyOp16
 70
     1
102
RTVSPropertyOp17
 70
     1
102
RTVSPropertyOp18
 70
     1
102
RTVSPropertyOp19
 70
     1
102
RTVSPropertyOp20
 70
     1
102
RTVSPropertyOp21
 70
     1
102
RTVSPropertyOp22
 70
     1
102
RTVSPropertyOp23
 70
     1
102
RTVSPropertyOp24
 70
     1
102
RTVSPropertyOp25
 70
     1
102
RTVSPropertyOp26
 70
     1
102
RTVSPropertyOp27
 70
     1
102
RTVSPropertyOp28
 70
     1
102
RTVSPropertyOp29
 70
     1
102
RTVSPropertyOp30
 70
     1
102
RTVSPropertyOp31
 70
     1
102
RTVSPropertyOp32
 70
     1
  0
XRECORD
  5
3C1
102
{ACAD_REACTORS
330
3C0
102
}
330
3C0
100
AcDbXrecord
280
     1
102
RTVSPropertyOp0
 70
     1
102
RTVSPropertyOp1
 70
     1
102
RTVSPropertyOp2
 70
     1
102
RTVSPropertyOp3
 70
     1
102
RTVSPropertyOp4
 70
     1
102
RTVSPropertyOp5
 70
     1
102
RTVSPropertyOp6
 70
     1
102
RTVSPropertyOp7
 70
     1
102
RTVSPropertyOp8
 70
     1
102
RTVSPropertyOp9
 70
     1
102
RTVSPropertyOp10
 70
     1
102
RTVSPropertyOp11
 70
     1
102
RTVSPropertyOp12
 70
     1
102
RTVSPropertyOp13
 70
     1
102
RTVSPropertyOp14
 70
     1
102
RTVSPropertyOp15
 70
     1
102
RTVSPropertyOp16
 70
     1
102
RTVSPropertyOp17
 70
     1
102
RTVSPropertyOp18
 70
     1
102
RTVSPropertyOp19
 70
     1
102
RTVSPropertyOp20
 70
     1
102
RTVSPropertyOp21
 70
     1
102
RTVSPropertyOp22
 70
     1
102
RTVSPropertyOp23
 70
     1
102
RTVSPropertyOp24
 70
     1
102
RTVSPropertyOp25
 70
     1
102
RTVSPropertyOp26
 70
     1
102
RTVSPropertyOp27
 70
     1
102
RTVSPropertyOp28
 70
     1
102
RTVSPropertyOp29
 70
     1
102
RTVSPropertyOp30
 70
     1
102
RTVSPropertyOp31
 70
     1
102
RTVSPropertyOp32
 70
     1
  0
XRECORD
  5
3C9
102
{ACAD_REACTORS
330
3C8
102
}
330
3C8
100
AcDbXrecord
280
     1
102
RTVSPropertyOp0
 70
     1
102
RTVSPropertyOp1
 70
     1
102
RTVSPropertyOp2
 70
     1
102
RTVSPropertyOp3
 70
     1
102
RTVSPropertyOp4
 70
     1
102
RTVSPropertyOp5
 70
     1
102
RTVSPropertyOp6
 70
     1
102
RTVSPropertyOp7
 70
     1
102
RTVSPropertyOp8
 70
     1
102
RTVSPropertyOp9
 70
     1
102
RTVSPropertyOp10
 70
     1
102
RTVSPropertyOp11
 70
     1
102
RTVSPropertyOp12
 70
     1
102
RTVSPropertyOp13
 70
     1
102
RTVSPropertyOp14
 70
     1
102
RTVSPropertyOp15
 70
     1
102
RTVSPropertyOp16
 70
     1
102
RTVSPropertyOp17
 70
     1
102
RTVSPropertyOp18
 70
     1
102
RTVSPropertyOp19
 70
     1
102
RTVSPropertyOp20
 70
     1
102
RTVSPropertyOp21
 70
     1
102
RTVSPropertyOp22
 70
     1
102
RTVSPropertyOp23
 70
     1
102
RTVSPropertyOp24
 70
     1
102
RTVSPropertyOp25
 70
     1
102
RTVSPropertyOp26
 70
     1
102
RTVSPropertyOp27
 70
     1
102
RTVSPropertyOp28
 70
     1
102
RTVSPropertyOp29
 70
     1
102
RTVSPropertyOp30
 70
     1
102
RTVSPropertyOp31
 70
     1
102
RTVSPropertyOp32
 70
     1
  0
XRECORD
  5
3AD
102
{ACAD_REACTORS
330
3AC
102
}
330
3AC
100
AcDbXrecord
280
     1
102
RTVSPropertyOp0
 70
     1
102
RTVSPropertyOp1
 70
     1
102
RTVSPropertyOp2
 70
     1
102
RTVSPropertyOp3
 70
     1
102
RTVSPropertyOp4
 70
     1
102
RTVSPropertyOp5
 70
     1
102
RTVSPropertyOp6
 70
     1
102
RTVSPropertyOp7
 70
     1
102
RTVSPropertyOp8
 70
     1
102
RTVSPropertyOp9
 70
     1
102
RTVSPropertyOp10
 70
     1
102
RTVSPropertyOp11
 70
     1
102
RTVSPropertyOp12
 70
     1
102
RTVSPropertyOp13
 70
     1
102
RTVSPropertyOp14
 70
     1
102
RTVSPropertyOp15
 70
     1
102
RTVSPropertyOp16
 70
     1
102
RTVSPropertyOp17
 70
     1
102
RTVSPropertyOp18
 70
     1
102
RTVSPropertyOp19
 70
     1
102
RTVSPropertyOp20
 70
     1
102
RTVSPropertyOp21
 70
     1
102
RTVSPropertyOp22
 70
     1
102
RTVSPropertyOp23
 70
     1
102
RTVSPropertyOp24
 70
     1
102
RTVSPropertyOp25
 70
     1
102
RTVSPropertyOp26
 70
     1
102
RTVSPropertyOp27
 70
     1
102
RTVSPropertyOp28
 70
     1
102
RTVSPropertyOp29
 70
     1
102
RTVSPropertyOp30
 70
     1
102
RTVSPropertyOp31
 70
     1
102
RTVSPropertyOp32
 70
     1
  0
XRECORD
  5
3AF
102
{ACAD_REACTORS
330
3AE
102
}
330
3AE
100
AcDbXrecord
280
     1
102
RTVSPropertyOp0
 70
     1
102
RTVSPropertyOp1
 70
     1
102
RTVSPropertyOp2
 70
     1
102
RTVSPropertyOp3
 70
     1
102
RTVSPropertyOp4
 70
     1
102
RTVSPropertyOp5
 70
     1
102
RTVSPropertyOp6
 70
     1
102
RTVSPropertyOp7
 70
     1
102
RTVSPropertyOp8
 70
     1
102
RTVSPropertyOp9
 70
     1
102
RTVSPropertyOp10
 70
     1
102
RTVSPropertyOp11
 70
     1
102
RTVSPropertyOp12
 70
     1
102
RTVSPropertyOp13
 70
     1
102
RTVSPropertyOp14
 70
     1
102
RTVSPropertyOp15
 70
     1
102
RTVSPropertyOp16
 70
     1
102
RTVSPropertyOp17
 70
     1
102
RTVSPropertyOp18
 70
     1
102
RTVSPropertyOp19
 70
     1
102
RTVSPropertyOp20
 70
     1
102
RTVSPropertyOp21
 70
     1
102
RTVSPropertyOp22
 70
     1
102
RTVSPropertyOp23
 70
     1
102
RTVSPropertyOp24
 70
     1
102
RTVSPropertyOp25
 70
     1
102
RTVSPropertyOp26
 70
     1
102
RTVSPropertyOp27
 70
     1
102
RTVSPropertyOp28
 70
     1
102
RTVSPropertyOp29
 70
     1
102
RTVSPropertyOp30
 70
     1
102
RTVSPropertyOp31
 70
     1
102
RTVSPropertyOp32
 70
     1
  0
XRECORD
  5
3B1
102
{ACAD_REACTORS
330
3B0
102
}
330
3B0
100
AcDbXrecord
280
     1
102
RTVSPropertyOp0
 70
     1
102
RTVSPropertyOp1
 70
     1
102
RTVSPropertyOp2
 70
     1
102
RTVSPropertyOp3
 70
     1
102
RTVSPropertyOp4
 70
     1
102
RTVSPropertyOp5
 70
     1
102
RTVSPropertyOp6
 70
     1
102
RTVSPropertyOp7
 70
     1
102
RTVSPropertyOp8
 70
     1
102
RTVSPropertyOp9
 70
     1
102
RTVSPropertyOp10
 70
     1
102
RTVSPropertyOp11
 70
     1
102
RTVSPropertyOp12
 70
     1
102
RTVSPropertyOp13
 70
     1
102
RTVSPropertyOp14
 70
     1
102
RTVSPropertyOp15
 70
     1
102
RTVSPropertyOp16
 70
     1
102
RTVSPropertyOp17
 70
     1
102
RTVSPropertyOp18
 70
     1
102
RTVSPropertyOp19
 70
     1
102
RTVSPropertyOp20
 70
     1
102
RTVSPropertyOp21
 70
     1
102
RTVSPropertyOp22
 70
     1
102
RTVSPropertyOp23
 70
     1
102
RTVSPropertyOp24
 70
     1
102
RTVSPropertyOp25
 70
     1
102
RTVSPropertyOp26
 70
     1
102
RTVSPropertyOp27
 70
     1
102
RTVSPropertyOp28
 70
     1
102
RTVSPropertyOp29
 70
     1
102
RTVSPropertyOp30
 70
     1
102
RTVSPropertyOp31
 70
     1
102
RTVSPropertyOp32
 70
     1
  0
XRECORD
  5
3B3
102
{ACAD_REACTORS
330
3B2
102
}
330
3B2
100
AcDbXrecord
280
     1
102
RTVSPropertyOp0
 70
     1
102
RTVSPropertyOp1
 70
     1
102
RTVSPropertyOp2
 70
     1
102
RTVSPropertyOp3
 70
     1
102
RTVSPropertyOp4
 70
     1
102
RTVSPropertyOp5
 70
     1
102
RTVSPropertyOp6
 70
     1
102
RTVSPropertyOp7
 70
     1
102
RTVSPropertyOp8
 70
     1
102
RTVSPropertyOp9
 70
     1
102
RTVSPropertyOp10
 70
     1
102
RTVSPropertyOp11
 70
     1
102
RTVSPropertyOp12
 70
     1
102
RTVSPropertyOp13
 70
     1
102
RTVSPropertyOp14
 70
     1
102
RTVSPropertyOp15
 70
     1
102
RTVSPropertyOp16
 70
     1
102
RTVSPropertyOp17
 70
     1
102
RTVSPropertyOp18
 70
     1
102
RTVSPropertyOp19
 70
     1
102
RTVSPropertyOp20
 70
     1
102
RTVSPropertyOp21
 70
     1
102
RTVSPropertyOp22
 70
     1
102
RTVSPropertyOp23
 70
     1
102
RTVSPropertyOp24
 70
     1
102
RTVSPropertyOp25
 70
     1
102
RTVSPropertyOp26
 70
     1
102
RTVSPropertyOp27
 70
     1
102
RTVSPropertyOp28
 70
     1
102
RTVSPropertyOp29
 70
     1
102
RTVSPropertyOp30
 70
     1
102
RTVSPropertyOp31
 70
     1
102
RTVSPropertyOp32
 70
     1
  0
XRECORD
  5
3C7
102
{ACAD_REACTORS
330
3C6
102
}
330
3C6
100
AcDbXrecord
280
     1
102
RTVSPropertyOp0
 70
     1
102
RTVSPropertyOp1
 70
     1
102
RTVSPropertyOp2
 70
     1
102
RTVSPropertyOp3
 70
     1
102
RTVSPropertyOp4
 70
     1
102
RTVSPropertyOp5
 70
     1
102
RTVSPropertyOp6
 70
     1
102
RTVSPropertyOp7
 70
     1
102
RTVSPropertyOp8
 70
     1
102
RTVSPropertyOp9
 70
     1
102
RTVSPropertyOp10
 70
     1
102
RTVSPropertyOp11
 70
     1
102
RTVSPropertyOp12
 70
     1
102
RTVSPropertyOp13
 70
     1
102
RTVSPropertyOp14
 70
     1
102
RTVSPropertyOp15
 70
     1
102
RTVSPropertyOp16
 70
     1
102
RTVSPropertyOp17
 70
     1
102
RTVSPropertyOp18
 70
     1
102
RTVSPropertyOp19
 70
     1
102
RTVSPropertyOp20
 70
     1
102
RTVSPropertyOp21
 70
     1
102
RTVSPropertyOp22
 70
     1
102
RTVSPropertyOp23
 70
     1
102
RTVSPropertyOp24
 70
     1
102
RTVSPropertyOp25
 70
     1
102
RTVSPropertyOp26
 70
     1
102
RTVSPropertyOp27
 70
     1
102
RTVSPropertyOp28
 70
     1
102
RTVSPropertyOp29
 70
     1
102
RTVSPropertyOp30
 70
     1
102
RTVSPropertyOp31
 70
     1
102
RTVSPropertyOp32
 70
     1
  0
XRECORD
  5
3BD
102
{ACAD_REACTORS
330
3BC
102
}
330
3BC
100
AcDbXrecord
280
     1
102
RTVSPropertyOp0
 70
     1
102
RTVSPropertyOp1
 70
     1
102
RTVSPropertyOp2
 70
     1
102
RTVSPropertyOp3
 70
     1
102
RTVSPropertyOp4
 70
     1
102
RTVSPropertyOp5
 70
     1
102
RTVSPropertyOp6
 70
     1
102
RTVSPropertyOp7
 70
     1
102
RTVSPropertyOp8
 70
     1
102
RTVSPropertyOp9
 70
     1
102
RTVSPropertyOp10
 70
     1
102
RTVSPropertyOp11
 70
     1
102
RTVSPropertyOp12
 70
     1
102
RTVSPropertyOp13
 70
     1
102
RTVSPropertyOp14
 70
     1
102
RTVSPropertyOp15
 70
     1
102
RTVSPropertyOp16
 70
     1
102
RTVSPropertyOp17
 70
     1
102
RTVSPropertyOp18
 70
     1
102
RTVSPropertyOp19
 70
     1
102
RTVSPropertyOp20
 70
     1
102
RTVSPropertyOp21
 70
     1
102
RTVSPropertyOp22
 70
     1
102
RTVSPropertyOp23
 70
     1
102
RTVSPropertyOp24
 70
     1
102
RTVSPropertyOp25
 70
     1
102
RTVSPropertyOp26
 70
     1
102
RTVSPropertyOp27
 70
     1
102
RTVSPropertyOp28
 70
     1
102
RTVSPropertyOp29
 70
     1
102
RTVSPropertyOp30
 70
     1
102
RTVSPropertyOp31
 70
     1
102
RTVSPropertyOp32
 70
     1
  0
XRECORD
  5
3C5
102
{ACAD_REACTORS
330
3C4
102
}
330
3C4
100
AcDbXrecord
280
     1
102
RTVSPropertyOp0
 70
     1
102
RTVSPropertyOp1
 70
     1
102
RTVSPropertyOp2
 70
     1
102
RTVSPropertyOp3
 70
     1
102
RTVSPropertyOp4
 70
     1
102
RTVSPropertyOp5
 70
     1
102
RTVSPropertyOp6
 70
     1
102
RTVSPropertyOp7
 70
     1
102
RTVSPropertyOp8
 70
     1
102
RTVSPropertyOp9
 70
     1
102
RTVSPropertyOp10
 70
     1
102
RTVSPropertyOp11
 70
     1
102
RTVSPropertyOp12
 70
     1
102
RTVSPropertyOp13
 70
     1
102
RTVSPropertyOp14
 70
     1
102
RTVSPropertyOp15
 70
     1
102
RTVSPropertyOp16
 70
     1
102
RTVSPropertyOp17
 70
     1
102
RTVSPropertyOp18
 70
     1
102
RTVSPropertyOp19
 70
     1
102
RTVSPropertyOp20
 70
     1
102
RTVSPropertyOp21
 70
     1
102
RTVSPropertyOp22
 70
     1
102
RTVSPropertyOp23
 70
     1
102
RTVSPropertyOp24
 70
     1
102
RTVSPropertyOp25
 70
     1
102
RTVSPropertyOp26
 70
     1
102
RTVSPropertyOp27
 70
     1
102
RTVSPropertyOp28
 70
     1
102
RTVSPropertyOp29
 70
     1
102
RTVSPropertyOp30
 70
     1
102
RTVSPropertyOp31
 70
     1
102
RTVSPropertyOp32
 70
     1
  0
ENDSEC
  0
EOF
